You are here

Hellstorm: The Documentary (2015)

Primary tabs

SizeSeedsPeersCompleted
1.93 GiB023
Format : MPEG-4 Format profile : Base Media / Version 2 Codec ID : mp42 File size : 1.13 GiB Duration : 1h 30mn Overall bit rate mode : Variable Overall bit rate : 1 784 Kbps Video ID : 1 Format : AVC Format/Info : Advanced Video Codec Format profile : High@L3.1 Format settings, CABAC : Yes Format settings, ReFrames : 1 frame Codec ID : avc1 Codec ID/Info : Advanced Video Coding Duration : 1h 30mn Bit rate : 1 590 Kbps Maximum bit rate : 10.1 Mbps Width : 1 280 pixels Height : 720 pixels Display aspect ratio : 16:9 Frame rate mode : Constant Frame rate : 24.000 fps Color space : YUV Chroma subsampling : 4:2:0 Bit depth : 8 bits Scan type : Progressive Bits/(Pixel*Frame) : 0.072 Stream size : 1.00 GiB (89%) Audio ID : 2 Format : AAC Format/Info : Advanced Audio Codec Format profile : LC Codec ID : 40 Duration : 1h 30mn Bit rate mode : Variable Bit rate : 192 Kbps Maximum bit rate : 201 Kbps Channel(s) : 2 channels Channel positions : Front: L R Sampling rate : 44.1 KHz Compression mode : Lossy Stream size : 124 MiB (11%) Language : English
FlagCount
Thanks given1
Essential content1
Info File: 

"This documentary tells the tale that the victors still do not want you to know. Learn the terrible truth about the rape, torture, slavery, and mass murder inflicted upon the German people by the Allied victors of World Word II. This is the biggest cover-up in world history."

"It was the most deadly and destructive war in human history. Millions were killed, billions in property was destroyed, ancient cultures were reduced to rubble--World War II was truly man's greatest cataclysm. Thousands of books, movies and documentary films have been devoted to the war. There has never been such a terrible retelling of the story, however, as one will find in Hellstorm. In a chilling "you-are-there" style, the author places the reader at the scene, in the moment. Throughout this book readers will see what Allied airman saw as they rained down death on German cities; or the reader will experience what those below experienced as they sat trembling in their bomb shelters awaiting that very same death from above. The reader will view up close the horrors of the Eastern Front during the last months of fighting and through the mud, blood and madness of combat they may come to understand how the same German soldiers, who only moments before had destroyed an enemy tank, could now risk their own lives to rescue the trapped Soviet crew inside. Readers will witness for themselves the fate of German women as the rampaging Red Army raped and murdered its way across Europe--all females, from "eight to eighty" feared the dreaded words, "Frau Komm." The worst nautical disasters in history which claimed thousands of lives, the greatest mass migration known to man in which millions perished, the fate of those wretched victims in post-war death camps and torture chambers, these and many other dark secrets of World War II now come to light in Hellstorm."

Website: http://www.hellstormdocumentary.com/
Buy The Book: http://www.amazon.com/Hellstorm-Death-Nazi-Germany-1944-1947/dp/1494775069

Comments

thanks

WOW WOw Wow everyone should see this

this was informative