You are here

Hellstorm

Hellstorm: The Documentary (2015)

SizeSeedsPeersCompleted
1.93 GiB41390
FlagCount
Thanks given1
Essential content1
Format : MPEG-4 Format profile : Base Media / Version 2 Codec ID : mp42 File size : 1.13 GiB Duration : 1h 30mn Overall bit rate mode : Variable Overall bit rate : 1 784 Kbps Video ID : 1 Format : AVC Format/Info : Advanced Video Codec Format profile : High@L3.1 Format settings, CABAC : Yes Format settings, ReFrames : 1 frame Codec ID : avc1 Codec ID/Info : Advanced Video Coding Duration : 1h 30mn Bit rate : 1 590 Kbps Maximum bit rate : 10.1 Mbps Width : 1 280 pixels Height : 720 pixels Display aspect ratio : 16:9 Frame rate mode : Constant Frame rate : 24.000 fps Color space : YUV Chroma subsampling : 4:2:0 Bit depth : 8 bits Scan type : Progressive Bits/(Pixel*Frame) : 0.072 Stream size : 1.00 GiB (89%) Audio ID : 2 Format : AAC Format/Info : Advanced Audio Codec Format profile : LC Codec ID : 40 Duration : 1h 30mn Bit rate mode : Variable Bit rate : 192 Kbps Maximum bit rate : 201 Kbps Channel(s) : 2 channels Channel positions : Front: L R Sampling rate : 44.1 KHz Compression mode : Lossy Stream size : 124 MiB (11%) Language : English

"This documentary tells the tale that the victors still do not want you to know. Learn the terrible truth about the rape, torture, slavery, and mass murder inflicted upon the German people by the Allied victors of World Word II. This is the biggest cover-up in world history."

Subscribe to RSS - Hellstorm