You are here

A Brief History of Disbelief (2004)

Primary tabs

SizeSeedsPeersCompleted
1.56 GiB1061
This torrent has no flags.


SERIES NAME: Jonathan Miller's Brief History of Disbelief (2004) GENERAL INFO: Format : AVI Format/Info : Audio Video Interleave File size : 529 MiB Duration : 58mn 59s Overall bit rate mode : Variable Overall bit rate : 1 254 Kbps Writing application : VirtualDubMod 1.5.10.2 (build 2540/release) Writing library : VirtualDubMod build 2540/release VIDEO INFO: ID : 0 Format : MPEG-4 Visual Format profile : Advanced Simple@L5 Format settings, BVOP : 1 Format settings, QPel : No Format settings, GMC : No warppoints Format settings, Matrix : Default (H.263) Codec ID : XVID Codec ID/Hint : XviD Duration : 58mn 59s Bit rate : 1 093 Kbps Width : 704 pixels Height : 384 pixels Display aspect ratio : 1.85:1 Frame rate : 25.000 fps Color space : YUV Chroma subsampling : 4:2:0 Bit depth : 8 bits Scan type : Progressive Compression mode : Lossy Bits/(Pixel*Frame) : 0.162 Stream size : 461 MiB (87%) Writing library : XviD 1.1.0 (UTC 2005-11-22) AUDIO INFO: ID : 1 Format : MPEG Audio Format version : Version 1 Format profile : Layer 3 Mode : Joint stereo Mode extension : MS Stereo Codec ID : 55 Codec ID/Hint : MP3 Duration : 58mn 59s Bit rate mode : Variable Bit rate : 148 Kbps Minimum bit rate : 128 Kbps Channel(s) : 2 channels Sampling rate : 48.0 KHz Compression mode : Lossy Stream size : 62.6 MiB (12%) Alignment : Aligned on interleaves Interleave, duration : 24 ms (0.60 video frame) Interleave, preload duration : 460 ms Writing library : LAME3.96r Encoding settings : -m j -V 2 -q 3 --vbr-old -b 128 FILES LIST: Brief-History-of-Disbelief_S01E01_Shadows-of-Doubt.avi (529 MB) Brief-History-of-Disbelief_S01E02_Noughts-and-Crosses.avi (536 MB) Brief-History-of-Disbelief_S01E03_The-Final-Hour.avi (530 MB) IMDB LINK: https://www.imdb.com/title/tt0429323 HASH TAGS: documentary series, mini-series, jonathan miller, atheism, rationalism, religion, philosophy, church, thought disorder,


_____________________________
This is a reseed of an old ConCen release which is too precious to be lost in the sands of time. Please adopt this torrent and preserve our knowledge for future generations. And please comment below if you know the identity of the original poster and/or source so we can give them proper credit for their generosity.