You are here

atheism

The Atheism Tapes (2004)

SizeSeedsPeersCompleted
2.18 GiB1065
This torrent has no flags.


SERIES NAME: Jonathan Miller's Atheism Tapes (2004) GENERAL INFO: Format : AVI Format/Info : Audio Video Interleave File size : 372 MiB Duration : 29mn 32s Overall bit rate : 1 758 Kbps Writing application : VirtualDubMod 1.5.10.2 (build 2542/release) Writing library : VirtualDubMod build 2542/release VIDEO INFO: ID : 0 Format : MPEG-4 Visual Format profile : Advanced Simple@L5 Format settings, BVOP : 2 Format settings, QPel : No Format settings, GMC : No warppoints Format settings, Matrix : Default (H.263) Muxing mode : Packed bitstream Codec ID : XVID Codec ID/Hint : XviD Duration : 29mn 32s Bit rate : 1 558 Kbps Width : 672 pixels Height : 368 pixels Display aspect ratio : 1.85:1 Frame rate : 29.970 fps Color space : YUV Chroma subsampling : 4:2:0 Bit depth : 8 bits Scan type : Progressive Compression mode : Lossy Bits/(Pixel*Frame) : 0.210 Stream size : 329 MiB (89%) Writing library : XviD 1.0.3 (UTC 2004-12-20) AUDIO INFO: ID : 1 Format : AC-3 Format/Info : Audio Coding 3 Mode extension : CM (complete main) Format settings, Endianness : Big Codec ID : 2000 Duration : 29mn 32s Bit rate mode : Constant Bit rate : 192 Kbps Channel(s) : 2 channels Channel positions : Front: L R Sampling rate : 48.0 KHz Compression mode : Lossy Stream size : 40.6 MiB (11%) Alignment : Split accross interleaves Interleave, duration : 80 ms (2.40 video frames) Interleave, preload duration : 80 ms FILES LIST: The-Atheism-Tapes_S01E01_Jonathan-Miller-in-Conversation-with-Colin-McGinn.avi (371 MB) The-Atheism-Tapes_S01E02_Jonathan-Miller-in-Conversation-with-Steven-Weinberg.avi (371 MB) The-Atheism-Tapes_S01E03_Jonathan-Miller-in-Conversation-with-Arthur-Miller.avi (371 MB) The-Atheism-Tapes_S01E04_Jonathan-Miller-in-Conversation-with-Richard-Dawkins.avi (372 MB) The-Atheism-Tapes_S01E05_Jonathan-Miller-in-Conversation-with-Denys-Turner.avi (371 MB) The-Atheism-Tapes_S01E06_Jonathan-Miller-in-Conversation-with-Daniel-C-Dennett.avi (371 MB) IMDB LINK: https://www.imdb.com/title/tt1651019 HASH TAGS: documentary series, jonathan miller, richard dawkins, arthur miller, daniel dennett, steven weinberg, atheism, religion, philosophy, christianity,


.

A Brief History of Disbelief (2004)

SizeSeedsPeersCompleted
1.56 GiB1061
This torrent has no flags.


SERIES NAME: Jonathan Miller's Brief History of Disbelief (2004) GENERAL INFO: Format : AVI Format/Info : Audio Video Interleave File size : 529 MiB Duration : 58mn 59s Overall bit rate mode : Variable Overall bit rate : 1 254 Kbps Writing application : VirtualDubMod 1.5.10.2 (build 2540/release) Writing library : VirtualDubMod build 2540/release VIDEO INFO: ID : 0 Format : MPEG-4 Visual Format profile : Advanced Simple@L5 Format settings, BVOP : 1 Format settings, QPel : No Format settings, GMC : No warppoints Format settings, Matrix : Default (H.263) Codec ID : XVID Codec ID/Hint : XviD Duration : 58mn 59s Bit rate : 1 093 Kbps Width : 704 pixels Height : 384 pixels Display aspect ratio : 1.85:1 Frame rate : 25.000 fps Color space : YUV Chroma subsampling : 4:2:0 Bit depth : 8 bits Scan type : Progressive Compression mode : Lossy Bits/(Pixel*Frame) : 0.162 Stream size : 461 MiB (87%) Writing library : XviD 1.1.0 (UTC 2005-11-22) AUDIO INFO: ID : 1 Format : MPEG Audio Format version : Version 1 Format profile : Layer 3 Mode : Joint stereo Mode extension : MS Stereo Codec ID : 55 Codec ID/Hint : MP3 Duration : 58mn 59s Bit rate mode : Variable Bit rate : 148 Kbps Minimum bit rate : 128 Kbps Channel(s) : 2 channels Sampling rate : 48.0 KHz Compression mode : Lossy Stream size : 62.6 MiB (12%) Alignment : Aligned on interleaves Interleave, duration : 24 ms (0.60 video frame) Interleave, preload duration : 460 ms Writing library : LAME3.96r Encoding settings : -m j -V 2 -q 3 --vbr-old -b 128 FILES LIST: Brief-History-of-Disbelief_S01E01_Shadows-of-Doubt.avi (529 MB) Brief-History-of-Disbelief_S01E02_Noughts-and-Crosses.avi (536 MB) Brief-History-of-Disbelief_S01E03_The-Final-Hour.avi (530 MB) IMDB LINK: https://www.imdb.com/title/tt0429323 HASH TAGS: documentary series, mini-series, jonathan miller, atheism, rationalism, religion, philosophy, church, thought disorder,


_____________________________
This is a reseed of an old ConCen release which is too precious to be lost in the sands of time. Please adopt this torrent and preserve our knowledge for future generations. And please comment below if you know the identity of the original poster and/or source so we can give them proper credit for their generosity.

Subscribe to RSS - atheism