You are here

Dying to Know Ram Dass and Timothy Leary (2014)

Primary tabs

SizeSeedsPeersCompleted
1.81 GiB30119
This torrent has no flags.


General Complete name : Dying.To.Know.Ram.Dass.And.Timothy.Leary.2014.1080p.BluRay.H264.AAC-LAMA.mp4 Format : MPEG-4 Format profile : Base Media Codec ID : isom (isom/iso2/avc1/mp41) File size : 1.81 GiB Duration : 1 h 34 min Overall bit rate : 2 726 kb/s Encoded date : UTC 2023-02-25 02:48:13 Tagged date : UTC 2023-02-25 02:48:13 Video ID : 1 Format : AVC Format/Info : Advanced Video Codec Format profile : High@L4.1 Format settings : CABAC / 4 Ref Frames Format settings, CABAC : Yes Format settings, Reference frames : 4 frames Codec ID : avc1 Codec ID/Info : Advanced Video Coding Duration : 1 h 34 min Bit rate : 2 500 kb/s Width : 1 920 pixels Height : 1 080 pixels Display aspect ratio : 16:9 Frame rate mode : Constant Frame rate : 23.976 (23976/1000) FPS Color space : YUV Chroma subsampling : 4:2:0 Bit depth : 8 bits Scan type : Progressive Bits/(Pixel*Frame) : 0.050 Stream size : 1.66 GiB (92%) Writing library : x264 core 152 LAMA Encoding settings : cabac=1 / ref=4 / deblock=1:-1:-1 / analyse=0x3:0x113 / me=umh / subme=9 / psy=1 / psy_rd=1.00:0.15 / mixed_ref=1 / me_range=24 / chroma_me=1 / trellis=2 / 8x8dct=1 / cqm=0 / deadzone=21,11 / fast_pskip=1 / chroma_qp_offset=-3 / threads=16 / lookahead_threads=4 / sliced_threads=0 / nr=0 / decimate=1 / interlaced=0 / bluray_compat=0 / constrained_intra=0 / bframes=3 / b_pyramid=2 / b_adapt=2 / b_bias=0 / direct=3 / weightb=1 / open_gop=0 / weightp=2 / keyint=250 / keyint_min=25 / scenecut=40 / intra_refresh=0 / rc_lookahead=50 / rc=2pass / mbtree=1 / bitrate=2500 / ratetol=1.0 / qcomp=0.60 / qpmin=0 / qpmax=69 / qpstep=4 / cplxblur=20.0 / qblur=0.5 / vbv_maxrate=31250 / vbv_bufsize=31250 / nal_hrd=none / filler=0 / ip_ratio=1.40 / aq=3:1.00 Encoded date : UTC 2023-02-25 02:48:13 Tagged date : UTC 2023-02-25 02:48:13 Codec configuration box : avcC Audio ID : 2 Format : AAC LC Format/Info : Advanced Audio Codec Low Complexity Codec ID : mp4a-40-2 Duration : 1 h 34 min Duration_LastFrame : -10 ms Bit rate mode : Constant Bit rate : 224 kb/s Channel(s) : 2 channels Channel layout : L R Sampling rate : 48.0 kHz Frame rate : 46.875 FPS (1024 SPF) Compression mode : Lossy Stream size : 152 MiB (8%) Language : French Default : Yes Alternate group : 1 Encoded date : UTC 2023-02-25 02:48:13 Tagged date : UTC 2023-02-25 02:48:13
File Duration Resolution Video Format Audio Format
Dying.To.Know.Ram.Dass.And.Timothy.Leary.2014.1080p.BluRay.H264.AAC-LAMA.mp4 1h34m 1920x1080 AVC AAC

Dying to Know is an intimate portrait celebrating two very complex controversial characters in an epic friendship that shaped a generation. In the early 1960s Harvard psychology professors Timothy Leary and Richard Alpert began probing the edges of consciousness through their experiments with psychedelics. Leary became the LSD guru, asking us to think for ourselves, igniting a global counter-cultural movement and landing in prison after Nixon called him 'the most dangerous man in America'. Alpert journeyed to the East becoming Ram Dass, a spiritual teacher for an entire generation who continues in his 80s teaching service through compassion. With interviews spanning 50 years the film invites us into the future encouraging us to ponder questions about life, drugs & the biggest mystery of all: death.

https://www.imdb.com/title/tt2516424/

https://www.reddit.com/user/ConspiracyTorrents/posts/