You are here

Mufon and UFO's: The Proof Is Out There (2022)

Primary tabs

SizeSeedsPeersCompleted
903.76 MiB10293
This torrent has no flags.


Researchers have been searching for proof of extraterrestrial life for years. Earl Anderson, the head of Investigations of MUFON Los Angeles, and his team search for proof of the existence of UAPs and life on beyond planet Earth. The proof is out there.

https://www.imdb.com/title/tt25295776/

https://www.reddit.com/user/ConspiracyTorrents/posts/



Quote:

General
Unique ID : 315766887416396847125698718049277753212 (0xED8E7D8A568212050D26598F408EB77C)
Complete name : X:\Mufon.And.Ufos.The.Proof.Is.Out.There.2022.720p.WEB.h264-PFa\Mufon.And.Ufos.The.Proof.Is.Out.There.2022.720p.WEB.h264-PFa.mkv
Format : Matroska
Format version : Version 4
File size : 903 MiB
Duration : 50 min 26 s
Overall bit rate : 2 504 kb/s
Encoded date : UTC 2023-02-13 12:44:12
Writing application : mkvmerge v70.0.0 ('Caught A Lite Sneeze') 64-bit
Writing library : libebml v1.4.2 + libmatroska v1.6.4

Video
ID : 1
Format : AVC
Format/Info : Advanced Video Codec
Format profile : High@L4
Format settings : CABAC / 4 Ref Frames
Format settings, CABAC : Yes
Format settings, Reference frames : 4 frames
Codec ID : V_MPEG4/ISO/AVC
Duration : 50 min 26 s
Bit rate : 2 376 kb/s
Width : 1 280 pixels
Height : 720 pixels
Display aspect ratio : 16:9
Frame rate mode : Constant
Frame rate : 23.976 (24000/1001) FPS
Color space : YUV
Chroma subsampling : 4:2:0
Bit depth : 8 bits
Scan type : Progressive
Bits/(Pixel*Frame) : 0.108
Stream size : 857 MiB (95%)
Writing library : x264 core 157
Encoding settings : cabac=1 / ref=4 / deblock=1:0:0 / analyse=0x3:0x133 / me=umh / subme=8 / psy=1 / psy_rd=1.00:0.00 / mixed_ref=1 / me_range=16 / chroma_me=1 / trellis=0 / 8x8dct=1 / cqm=0 / deadzone=21,11 / fast_pskip=1 / chroma_qp_offset=-2 / threads=1 / lookahead_threads=1 / sliced_threads=0 / nr=0 / decimate=1 / interlaced=0 / bluray_compat=0 / constrained_intra=0 / bframes=4 / b_pyramid=2 / b_adapt=2 / b_bias=0 / direct=3 / weightb=1 / open_gop=0 / weightp=2 / keyint=96 / keyint_min=49 / scenecut=0 / intra_refresh=0 / rc_lookahead=40 / rc=crf / mbtree=1 / crf=1.0 / qcomp=0.60 / qpmin=0 / qpmax=69 / qpstep=4 / vbv_maxrate=2400 / vbv_bufsize=1920 / crf_max=0.0 / nal_hrd=none / filler=0 / ip_ratio=1.41 / aq=1:1.00
Language : English
Default : Yes
Forced : No

Audio
ID : 2
Format : AAC LC
Format/Info : Advanced Audio Codec Low Complexity
Codec ID : A_AAC-2
Duration : 50 min 26 s
Bit rate : 126 kb/s
Channel(s) : 2 channels
Channel layout : L R
Sampling rate : 44.1 kHz
Frame rate : 43.066 FPS (1024 SPF)
Compression mode : Lossy
Stream size : 45.3 MiB (5%)
Language : English
Default : Yes
Forced : No

Text
ID : 3
Format : UTF-8
Codec ID : S_TEXT/UTF8
Codec ID/Info : UTF-8 Plain Text
Duration : 50 min 20 s
Bit rate : 116 b/s
Count of elements : 1132
Stream size : 42.8 KiB (0%)
Language : English
Default : No
Forced : No