You are here

Ancient Apocalypse s01 [1080p x265]

Primary tabs

SizeSeedsPeersCompleted
4.64 GiB20304
This torrent has no flags.


What if everything we know about prehistoric humans is wrong? Journalist  Graham Hancock visits archaeological sites around the world to uncover  whether a civilization far more advanced than we ever believed possible  existed thousands of years ago.

1. Once There Was a Flood
31m

Graham visits Gunung Padang, an Indonesian archeological site, to find  proof of a lost civilization — and the potential cataclysm that wiped it  out.

2. Stranger in a Time of Chaos
33m

In Cholula, Mexico's oldest continuously-inhabited city, the journalist  inspects the world's largest pyramid for signs of a forgotten past.

3. Sirius Rising
31m

Graham discovers a fascinating pattern that may connect the spectacular  megalithic temples of Malta, which he believes to be much older than  reported.

4. Ghosts of a Drowned World
30m

Few scholars have investigated the Bimini rock formation off the coast  of Miami, once fabled to be the road to Atlantis — but Graham dives  right in.

5. Legacy of the Sages
32m

At Göbekli Tepe, the oldest known megalith in the world, Graham  questions if simple hunter-gatherers alone could have built such an  advanced structure.

6. America's Lost Civilization
33m

Graham visits ancient mounds in North America and wonders if they  contain astronomical significance — or even warnings of an apocalyptic  climate event.

7. A Fatal Winter
29m

The author returns to Turkey to explore Derinkuyu, an ancient  underground city and survival bunker that could shelter thousands in  times of crisis.

8. Cataclysm and Rebirth
32m

In the ancient geological sites of North America, Graham envisions an  apocalyptic event that may have changed the Earth — and its inhabitants —  forever.

https://www.imdb.com/title/tt22807484/
https://www.reddit.com/user/ConspiracyTorrents/posts/




Quote:

General
Unique ID : 32766788631308703389764146057908037517 (0x18A6A768A771843D518DDF24C273A78D)
Complete name : D:\Ancient.Apocalypse.2022.S01.1080p.NF.WEBRip.x265-An0mal1\Ancient.Apocalypse.S01E01.Once.There.Was.a.Flood.1080p.NF.WEBRip.x265-An0mal1.mkv
Format : Matroska
Format version : Version 4
File size : 602 MiB
Duration : 32 min 42 s
Overall bit rate : 2 572 kb/s
Encoded date : UTC 2022-11-13 12:30:33
Writing application : mkvmerge v67.0.0 ('Under Stars') 64-bit
Writing library : libebml v1.4.2 + libmatroska v1.6.4

Video
ID : 1
Format : HEVC
Format/Info : High Efficiency Video Coding
Format profile : Main 10@L4@Main
Codec ID : V_MPEGH/ISO/HEVC
Duration : 32 min 29 s
Bit rate : 1 937 kb/s
Width : 1 920 pixels
Height : 1 080 pixels
Display aspect ratio : 16:9
Frame rate mode : Constant
Frame rate : 25.000 FPS
Color space : YUV
Chroma subsampling : 4:2:0
Bit depth : 10 bits
Bits/(Pixel*Frame) : 0.037
Stream size : 450 MiB (75%)
Writing library : x265 3.5+37+12-4e46995bc:[Windows][MSVC 1931][64 bit] 10bit
Encoding settings : cpuid=1111039 / frame-threads=4 / numa-pools=16 / wpp / no-pmode / no-pme / no-psnr / no-ssim / log-level=2 / input-csp=1 / input-res=1920x1080 / interlace=0 / total-frames=48733 / level-idc=0 / high-tier=1 / uhd-bd=0 / ref=4 / no-allow-non-conformance / no-repeat-headers / annexb / no-aud / no-eob / no-eos / no-hrd / info / hash=0 / no-temporal-layers / open-gop / min-keyint=25 / keyint=250 / gop-lookahead=0 / bframes=8 / b-adapt=2 / b-pyramid / bframe-bias=0 / rc-lookahead=25 / lookahead-slices=4 / scenecut=40 / no-hist-scenecut / radl=0 / no-splice / no-intra-refresh / ctu=64 / min-cu-size=8 / rect / no-amp / max-tu-size=32 / tu-inter-depth=1 / tu-intra-depth=1 / limit-tu=0 / rdoq-level=2 / dynamic-rd=0.00 / no-ssim-rd / signhide / no-tskip / nr-intra=0 / nr-inter=0 / no-constrained-intra / strong-intra-smoothing / max-merge=3 / limit-refs=3 / limit-modes / me=3 / subme=3 / merange=57 / temporal-mvp / no-frame-dup / no-hme / weightp / no-weightb / no-analyze-src-pics / deblock=-3:-3 / no-sao / no-sao-non-deblock / rd=4 / selective-sao=0 / no-early-skip / rskip / no-fast-intra / no-tskip-fast / no-cu-lossless / no-b-intra / no-splitrd-skip / rdpenalty=0 / psy-rd=2.00 / psy-rdoq=1.00 / no-rd-refine / no-lossless / cbqpoffs=0 / crqpoffs=0 / rc=abr / bitrate=2000 / qcomp=0.60 / qpstep=4 / stats-write=0 / stats-read=0 / ipratio=1.40 / pbratio=1.30 / aq-mode=5 / aq-strength=1.00 / aq-bias-strength=1.00 / cutree / zone-count=0 / no-strict-cbr / qg-size=32 / no-rc-grain / qpmax=69 / qpmin=0 / no-const-vbv / sar=0 / overscan=0 / videoformat=5 / range=0 / colorprim=2 / transfer=2 / colormatrix=2 / chromaloc=0 / display-window=0 / cll=0,0 / min-luma=0 / max-luma=1023 / log2-max-poc-lsb=8 / vui-timing-info / vui-hrd-info / slices=1 / no-opt-qp-pps / no-opt-ref-list-length-pps / no-multi-pass-opt-rps / scenecut-bias=0.05 / hist-threshold=0.03 / no-opt-cu-delta-qp / no-aq-motion / no-hdr10 / no-hdr10-opt / no-dhdr10-opt / no-idr-recovery-sei / analysis-reuse-level=0 / analysis-save-reuse-level=0 / analysis-load-reuse-level=0 / scale-factor=0 / refine-intra=0 / refine-inter=0 / refine-mv=1 / refine-ctu-distortion=0 / no-limit-sao / ctu-info=0 / no-lowpass-dct / refine-analysis-type=0 / copy-pic=1 / max-ausize-factor=1.0 / no-dynamic-refine / no-single-sei / no-hevc-aq / no-svt / no-field / qp-adaptation-range=1.00 / scenecut-aware-qp=0conformance-window-offsets / right=0 / bottom=0 / decoder-max-rate=0 / no-vbv-live-multi-pass
Default : Yes
Forced : No

Audio
ID : 2
Format : E-AC-3
Format/Info : Enhanced AC-3
Commercial name : Dolby Digital Plus
Codec ID : A_EAC3
Duration : 32 min 42 s
Bit rate mode : Constant
Bit rate : 640 kb/s
Channel(s) : 6 channels
Channel layout : L R C LFE Ls Rs
Sampling rate : 48.0 kHz
Frame rate : 31.250 FPS (1536 SPF)
Compression mode : Lossy
Stream size : 150 MiB (25%)
Language : English
Service kind : Complete Main
Default : Yes
Forced : No

Text #1
ID : 3
Format : UTF-8
Codec ID : S_TEXT/UTF8
Codec ID/Info : UTF-8 Plain Text
Duration : 31 min 32 s
Bit rate : 92 b/s
Count of elements : 472
Stream size : 21.4 KiB (0%)
Title : Portuguese (Brazil)
Language : Portuguese
Default : No
Forced : No

Text #2
ID : 4
Format : UTF-8
Codec ID : S_TEXT/UTF8
Codec ID/Info : UTF-8 Plain Text
Duration : 30 min 56 s
Bit rate : 98 b/s
Count of elements : 442
Stream size : 22.4 KiB (0%)
Language : English
Default : No
Forced : No

Text #3
ID : 5
Format : UTF-8
Codec ID : S_TEXT/UTF8
Codec ID/Info : UTF-8 Plain Text
Duration : 30 min 56 s
Bit rate : 100 b/s
Count of elements : 450
Stream size : 22.8 KiB (0%)
Title : SDH
Language : English
Default : No
Forced : No

Text #4
ID : 6
Format : UTF-8
Codec ID : S_TEXT/UTF8
Codec ID/Info : UTF-8 Plain Text
Duration : 31 min 32 s
Bit rate : 133 b/s
Count of elements : 478
Stream size : 30.8 KiB (0%)
Language : Arabic
Default : No
Forced : No

Text #5
ID : 7
Format : UTF-8
Codec ID : S_TEXT/UTF8
Codec ID/Info : UTF-8 Plain Text
Duration : 31 min 32 s
Bit rate : 93 b/s
Count of elements : 469
Stream size : 21.7 KiB (0%)
Language : Czech
Default : No
Forced : No

Text #6
ID : 8
Format : UTF-8
Codec ID : S_TEXT/UTF8
Codec ID/Info : UTF-8 Plain Text
Duration : 31 min 2 s
Bit rate : 93 b/s
Count of elements : 478
Stream size : 21.3 KiB (0%)
Language : Danish
Default : No
Forced : No

Text #7
ID : 9
Format : UTF-8
Codec ID : S_TEXT/UTF8
Codec ID/Info : UTF-8 Plain Text
Duration : 31 min 32 s
Bit rate : 90 b/s
Count of elements : 469
Stream size : 21.0 KiB (0%)
Language : German
Default : No
Forced : No

Text #8
ID : 10
Format : UTF-8
Codec ID : S_TEXT/UTF8
Codec ID/Info : UTF-8 Plain Text
Duration : 31 min 32 s
Bit rate : 163 b/s
Count of elements : 477
Stream size : 37.9 KiB (0%)
Language : Greek
Default : No
Forced : No

Text #9
ID : 11
Format : UTF-8
Codec ID : S_TEXT/UTF8
Codec ID/Info : UTF-8 Plain Text
Duration : 31 min 32 s
Bit rate : 91 b/s
Count of elements : 471
Stream size : 21.1 KiB (0%)
Title : Spanish (Latin America)
Language : Spanish
Default : No
Forced : No

Text #10
ID : 12
Format : UTF-8
Codec ID : S_TEXT/UTF8
Codec ID/Info : UTF-8 Plain Text
Duration : 31 min 32 s
Bit rate : 92 b/s
Count of elements : 472
Stream size : 21.3 KiB (0%)
Title : Spanish (Spain)
Language : Spanish
Default : No
Forced : No

Text #11
ID : 13
Format : UTF-8
Codec ID : S_TEXT/UTF8
Codec ID/Info : UTF-8 Plain Text
Duration : 31 min 32 s
Bit rate : 84 b/s
Count of elements : 456
Stream size : 19.4 KiB (0%)
Language : Finnish
Default : No
Forced : No

Text #12
ID : 14
Format : UTF-8
Codec ID : S_TEXT/UTF8
Codec ID/Info : UTF-8 Plain Text
Duration : 31 min 32 s
Bit rate : 82 b/s
Count of elements : 447
Stream size : 19.1 KiB (0%)
Language : fil
Default : No
Forced : No

Text #13
ID : 15
Format : UTF-8
Codec ID : S_TEXT/UTF8
Codec ID/Info : UTF-8 Plain Text
Duration : 31 min 32 s
Bit rate : 95 b/s
Count of elements : 467
Stream size : 22.0 KiB (0%)
Language : French
Default : No
Forced : No

Text #14
ID : 16
Format : UTF-8
Codec ID : S_TEXT/UTF8
Codec ID/Info : UTF-8 Plain Text
Duration : 31 min 32 s
Bit rate : 120 b/s
Count of elements : 478
Stream size : 27.8 KiB (0%)
Language : Hebrew
Default : No
Forced : No

Text #15
ID : 17
Format : UTF-8
Codec ID : S_TEXT/UTF8
Codec ID/Info : UTF-8 Plain Text
Duration : 31 min 32 s
Bit rate : 85 b/s
Count of elements : 464
Stream size : 19.8 KiB (0%)
Language : Croatian
Default : No
Forced : No

Text #16
ID : 18
Format : UTF-8
Codec ID : S_TEXT/UTF8
Codec ID/Info : UTF-8 Plain Text
Duration : 31 min 32 s
Bit rate : 95 b/s
Count of elements : 472
Stream size : 22.1 KiB (0%)
Language : Hungarian
Default : No
Forced : No

Text #17
ID : 19
Format : UTF-8
Codec ID : S_TEXT/UTF8
Codec ID/Info : UTF-8 Plain Text
Duration : 31 min 32 s
Bit rate : 89 b/s
Count of elements : 473
Stream size : 20.7 KiB (0%)
Language : Indonesian
Default : No
Forced : No

Text #18
ID : 20
Format : UTF-8
Codec ID : S_TEXT/UTF8
Codec ID/Info : UTF-8 Plain Text
Duration : 31 min 32 s
Bit rate : 93 b/s
Count of elements : 474
Stream size : 21.6 KiB (0%)
Language : Italian
Default : No
Forced : No

Text #19
ID : 21
Format : UTF-8
Codec ID : S_TEXT/UTF8
Codec ID/Info : UTF-8 Plain Text
Duration : 31 min 32 s
Bit rate : 78 b/s
Count of elements : 421
Stream size : 18.1 KiB (0%)
Language : Japanese
Default : No
Forced : No

Text #20
ID : 22
Format : UTF-8
Codec ID : S_TEXT/UTF8
Codec ID/Info : UTF-8 Plain Text
Duration : 31 min 32 s
Bit rate : 101 b/s
Count of elements : 477
Stream size : 23.4 KiB (0%)
Language : Korean
Default : No
Forced : No

Text #21
ID : 23
Format : UTF-8
Codec ID : S_TEXT/UTF8
Codec ID/Info : UTF-8 Plain Text
Duration : 31 min 32 s
Bit rate : 88 b/s
Count of elements : 469
Stream size : 20.5 KiB (0%)
Language : Malay
Default : No
Forced : No

Text #22
ID : 24
Format : UTF-8
Codec ID : S_TEXT/UTF8
Codec ID/Info : UTF-8 Plain Text
Duration : 31 min 32 s
Bit rate : 89 b/s
Count of elements : 468
Stream size : 20.6 KiB (0%)
Language : Norwegian Bokmal
Default : No
Forced : No

Text #23
ID : 25
Format : UTF-8
Codec ID : S_TEXT/UTF8
Codec ID/Info : UTF-8 Plain Text
Duration : 31 min 32 s
Bit rate : 86 b/s
Count of elements : 453
Stream size : 20.0 KiB (0%)
Language : Dutch
Default : No
Forced : No

Text #24
ID : 26
Format : UTF-8
Codec ID : S_TEXT/UTF8
Codec ID/Info : UTF-8 Plain Text
Duration : 31 min 32 s
Bit rate : 85 b/s
Count of elements : 471
Stream size : 19.8 KiB (0%)
Language : Polish
Default : No
Forced : No

Text #25
ID : 27
Format : UTF-8
Codec ID : S_TEXT/UTF8
Codec ID/Info : UTF-8 Plain Text
Duration : 31 min 32 s
Bit rate : 97 b/s
Count of elements : 471
Stream size : 22.5 KiB (0%)
Title : Portuguese (Portugal)
Language : Portuguese
Default : No
Forced : No

Text #26
ID : 28
Format : UTF-8
Codec ID : S_TEXT/UTF8
Codec ID/Info : UTF-8 Plain Text
Duration : 31 min 32 s
Bit rate : 99 b/s
Count of elements : 469
Stream size : 23.0 KiB (0%)
Language : Romanian
Default : No
Forced : No

Text #27
ID : 29
Format : UTF-8
Codec ID : S_TEXT/UTF8
Codec ID/Info : UTF-8 Plain Text
Duration : 31 min 32 s
Bit rate : 157 b/s
Count of elements : 478
Stream size : 36.5 KiB (0%)
Language : Russian
Default : No
Forced : No

Text #28
ID : 30
Format : UTF-8
Codec ID : S_TEXT/UTF8
Codec ID/Info : UTF-8 Plain Text
Duration : 31 min 32 s
Bit rate : 91 b/s
Count of elements : 467
Stream size : 21.1 KiB (0%)
Language : Swedish
Default : No
Forced : No

Text #29
ID : 31
Format : UTF-8
Codec ID : S_TEXT/UTF8
Codec ID/Info : UTF-8 Plain Text
Duration : 31 min 32 s
Bit rate : 215 b/s
Count of elements : 478
Stream size : 49.9 KiB (0%)
Language : Thai
Default : No
Forced : No

Text #30
ID : 32
Format : UTF-8
Codec ID : S_TEXT/UTF8
Codec ID/Info : UTF-8 Plain Text
Duration : 31 min 32 s
Bit rate : 93 b/s
Count of elements : 472
Stream size : 21.6 KiB (0%)
Language : Turkish
Default : No
Forced : No

Text #31
ID : 33
Format : UTF-8
Codec ID : S_TEXT/UTF8
Codec ID/Info : UTF-8 Plain Text
Duration : 31 min 32 s
Bit rate : 161 b/s
Count of elements : 478
Stream size : 37.4 KiB (0%)
Language : Ukrainian
Default : No
Forced : No

Text #32
ID : 34
Format : UTF-8
Codec ID : S_TEXT/UTF8
Codec ID/Info : UTF-8 Plain Text
Duration : 31 min 32 s
Bit rate : 116 b/s
Count of elements : 470
Stream size : 26.8 KiB (0%)
Language : Vietnamese
Default : No
Forced : No

Text #33
ID : 35
Format : UTF-8
Codec ID : S_TEXT/UTF8
Codec ID/Info : UTF-8 Plain Text
Duration : 31 min 32 s
Bit rate : 81 b/s
Count of elements : 479
Stream size : 18.8 KiB (0%)
Title : Chinese (Simplified)
Language : Chinese
Default : No
Forced : No

Text #34
ID : 36
Format : UTF-8
Codec ID : S_TEXT/UTF8
Codec ID/Info : UTF-8 Plain Text
Duration : 31 min 32 s
Bit rate : 74 b/s
Count of elements : 479
Stream size : 17.3 KiB (0%)
Title : Chinese (Traditional)
Language : Chinese
Default : No
Forced : No

Menu
00:00:00.000 : en:Chapter 1
00:31:13.000 : en:Credits

Comments

Nice one! Thanks.

Another good thing about Netflix is their subtitles and dubs, they have many!

I've been watching this in x264 from eztv.re and it's very good, I still have the last two installments to go. Yes, Netflix has a decent selection of subtitles, but I often wonder about their choices for word in English, "insects chirping" and so on, so I'm not convinced their Behasa Indonesi is any better than their English.

Hancock does a good job of presenting his ideas of a pre-Ice Age high human culture based on his books, tours and research. The only thing so far I didn't find convincing was the Bimini Road aka Bimini Boatramp which could just be a dump of rocks in modern times (the Piri Reis map shows something, but it's not conclusive at all). It DOES look like a ramp for ships, eroded by the sea, but Graham Hancock never makes that obvious conclusion for whatever reason. Ancient Sea-Kings is quite obvious in the series, and it is a very good, enjoyable and educational watch. Recommended.

We're just about there! Stuck at 96.3% currently....

I just want to apologise to the uploader of this torrent for not seeding. I usually seed to at least 2:1 if I can but I screwed up.

_episode 1_
I found a rock in a field.
it didn't look like the others.
I can't imagine how this could happen naturally.
It's a special rock.
It's special because it lets me imagine things.
Mostly it lets me imagine I am smarter than all archeologists.