You are here

In Plain Sight: The Intelligence Community and UFOs (2022)

Primary tabs

SizeSeedsPeersCompleted
1.82 GiB40636
This torrent has no flags.


As the United States and countries around the world declassify UFO records and public awareness grows, former intelligence officers, experts, and experiencers share what they know and where we go In Plain Sight: The Intelligence Community and UFOs.

https://www.imdb.com/title/tt17007488/

https://www.reddit.com/user/ConspiracyTorrents/posts/




Quote:

General
Unique ID : 117544047787331071813775725889690853882 (0x586E28FF0DBEDF8EC69D610FAC0CE1FA)
Complete name : D:\In Plain Sight - The Intelligence Community and UFOs (2022) 1080p WEB-DL h265 An0mal1\In Plain Sight - The Intelligence Community and UFOs (2022) 1080p WEB-DL h265 An0mal1.mkv
Format : Matroska
Format version : Version 4
File size : 1.81 GiB
Duration : 1 h 21 min
Overall bit rate : 3 204 kb/s
Movie name : In Plain Sight: The Intelligence Community and UFOs
Description : How far will the government go to obfuscate what they know about UFOs and ETs? Experts, retired CIA, and former counterintelligence officers disclose what they've heard and seen IN PLAIN SIGHT: THE INTELLIGENCE COMMUNITY AND UFOS.
Writing application : Lavf58.29.100
Writing library : Lavf58.29.100
ErrorDetectionType : Per level 1
Attachments : B0B69D2ZJK.jpg
DATE : 2022

Video
ID : 1
Format : HEVC
Format/Info : High Efficiency Video Coding
Format profile : Main@L4@Main
Codec ID : V_MPEGH/ISO/HEVC
Duration : 1 h 21 min
Bit rate : 2 917 kb/s
Width : 1 920 pixels
Height : 1 080 pixels
Display aspect ratio : 16:9
Frame rate mode : Constant
Frame rate : 23.976 (24000/1001) FPS
Color space : YUV
Chroma subsampling : 4:2:0
Bit depth : 8 bits
Bits/(Pixel*Frame) : 0.059
Stream size : 1.65 GiB (91%)
Default : Yes
Forced : No
Color range : Limited

Audio
ID : 2
Format : E-AC-3
Format/Info : Enhanced AC-3
Commercial name : Dolby Digital Plus
Codec ID : A_EAC3
Duration : 1 h 21 min
Bit rate mode : Constant
Bit rate : 224 kb/s
Channel(s) : 2 channels
Channel layout : L R
Sampling rate : 48.0 kHz
Frame rate : 31.250 FPS (1536 SPF)
Bit depth : 32 bits
Compression mode : Lossy
Stream size : 130 MiB (7%)
Title : English
Language : English
Service kind : Complete Main
Default : Yes
Forced : No

Comments

IMHO all this about ETs, EBEs, etc... in main stream media is in preparation (programming) ppl in general to accept or connect or 'go with the flow' of a fake invasion from some source off planet.