You are here

The Days of Noah (2019) [1080p x265]

Primary tabs

SizeSeedsPeersCompleted
6.05 GiB50200
This torrent has no flags.


THE DAYS OF NOAH series investigates the revealing prophetic parallels between the message of Noah and the book of Revelation to uncover as never before, the Truth about the Ark of refuge at the end of time and how to enter into it. These prophecies such as the Antichrist, the Mark of the Beast and others, have left many confused about the events to come, but viewed through the story of Noah and the flood, these end-times events are brought into sharp focus. Discover how the Bible reveals that even today we are living in the very time of which "the days of Noah" were but a symbol, that time is short, God's mercy is pleading with mankind and the door of the Ark is about to close - forever.

Part 1 - The Flood:
The history of our world is etched into the Earth itself and the evidence of a global judgment in the past, is an irrevocable warning of another judgment yet to come, "for as it was in the days of Noah, so it will be at the coming of the Son of Man." (Matt. 24:37) This four part documentary series will open to view the prophecies of the last days by looking back looking back to the days of Noah.

Part 2 - Judgment Hour:
The physical evidence left behind warns us of another judgment to come, but when? The second film in "The Days of Noah" series, "Judgment Hour," answers this question. Just before the Flood, Noah gave a judgment hour message to the world and likewise, a prophecy in the book of Daniel tells us when the judgment hour message at the end of time would begin.

Part 3 - The Valley of Decision:
The final crisis is about to break upon the world and the prophecies concerning the Antichrist and the mark of the beast reveal how all upon the Earth will be forced to choose whether or not they will enter the refuge of the Ark. Everyone will soon find themselves in "The Valley of Decision," just as it was in the days of Noah.

Part 4 - Ark of Fire:
When Jesus comes again, He will come as a consuming fire. Isaiah asked "Who among us shall dwell with the devouring fire? who among us shall dwell with everlasting burnings?" (Isa 33:14) And then he answers his question and says "he that walketh righteously." (Isa. 33:15) The message of Noah will prepare a people for the coming of Christ, because Noah was "a preacher of righteousness." (2 Pe. 2:5)

http://www.thedaysofnoah.com/

https://www.imdb.com/title/tt9647706/

https://www.reddit.com/user/ConspiracyTorrents/posts/




Quote:

General
Unique ID : 92643901978187514357448791516266622689 (0x45B291060B23CCEC307FE4E72FFBEEE1)
Complete name : D:\The Days of Noah (2019) 1080p WEBRip x265\The.Days.of.Noah.The.Valley.of.Decision.2019.1080p.AMZN.WEBRip.x265-An0mal1\The.Days.of.Noah.The.Valley.of.Decision.2019.1080p.AMZN.WEBRip.x265-An0mal1.mkv
Format : Matroska
Format version : Version 4
File size : 1.96 GiB
Duration : 1 h 47 min
Overall bit rate : 2 615 kb/s
Movie name : Downloaded from https://www.reddit.com/user/ConspiracyTorrents/posts/
Encoded date : UTC 2022-09-27 02:57:24
Writing application : mkvmerge v67.0.0 ('Under Stars') 64-bit
Writing library : libebml v1.4.2 + libmatroska v1.6.4

Video
ID : 1
Format : HEVC
Format/Info : High Efficiency Video Coding
Format profile : Main 10@L4@Main
Codec ID : V_MPEGH/ISO/HEVC
Duration : 1 h 47 min
Bit rate : 1 973 kb/s
Width : 1 920 pixels
Height : 1 080 pixels
Display aspect ratio : 16:9
Frame rate mode : Constant
Frame rate : 23.976 (24000/1001) FPS
Color space : YUV
Chroma subsampling : 4:2:0
Bit depth : 10 bits
Bits/(Pixel*Frame) : 0.040
Stream size : 1.48 GiB (75%)
Writing library : x265 3.5+37+12-4e46995bc:[Windows][MSVC 1931][64 bit] 10bit
Encoding settings : cpuid=1111039 / frame-threads=4 / numa-pools=16 / wpp / no-pmode / no-pme / no-psnr / no-ssim / log-level=2 / input-csp=1 / input-res=1920x1080 / interlace=0 / total-frames=154582 / level-idc=0 / high-tier=1 / uhd-bd=0 / ref=4 / no-allow-non-conformance / no-repeat-headers / annexb / no-aud / no-eob / no-eos / no-hrd / info / hash=0 / no-temporal-layers / open-gop / min-keyint=23 / keyint=250 / gop-lookahead=0 / bframes=8 / b-adapt=2 / b-pyramid / bframe-bias=0 / rc-lookahead=25 / lookahead-slices=4 / scenecut=40 / no-hist-scenecut / radl=0 / no-splice / no-intra-refresh / ctu=64 / min-cu-size=8 / rect / no-amp / max-tu-size=32 / tu-inter-depth=1 / tu-intra-depth=1 / limit-tu=0 / rdoq-level=2 / dynamic-rd=0.00 / no-ssim-rd / signhide / no-tskip / nr-intra=0 / nr-inter=0 / no-constrained-intra / strong-intra-smoothing / max-merge=3 / limit-refs=3 / limit-modes / me=3 / subme=3 / merange=57 / temporal-mvp / no-frame-dup / no-hme / weightp / no-weightb / no-analyze-src-pics / deblock=-3:-3 / no-sao / no-sao-non-deblock / rd=4 / selective-sao=0 / no-early-skip / rskip / no-fast-intra / no-tskip-fast / no-cu-lossless / no-b-intra / no-splitrd-skip / rdpenalty=0 / psy-rd=2.00 / psy-rdoq=1.00 / no-rd-refine / no-lossless / cbqpoffs=0 / crqpoffs=0 / rc=abr / bitrate=2000 / qcomp=0.60 / qpstep=4 / stats-write=0 / stats-read=0 / ipratio=1.40 / pbratio=1.30 / aq-mode=5 / aq-strength=1.00 / aq-bias-strength=1.00 / cutree / zone-count=0 / no-strict-cbr / qg-size=32 / no-rc-grain / qpmax=69 / qpmin=0 / no-const-vbv / sar=0 / overscan=0 / videoformat=5 / range=0 / colorprim=1 / transfer=1 / colormatrix=1 / chromaloc=0 / display-window=0 / cll=0,0 / min-luma=0 / max-luma=1023 / log2-max-poc-lsb=8 / vui-timing-info / vui-hrd-info / slices=1 / no-opt-qp-pps / no-opt-ref-list-length-pps / no-multi-pass-opt-rps / scenecut-bias=0.05 / hist-threshold=0.03 / no-opt-cu-delta-qp / no-aq-motion / no-hdr10 / no-hdr10-opt / no-dhdr10-opt / no-idr-recovery-sei / analysis-reuse-level=0 / analysis-save-reuse-level=0 / analysis-load-reuse-level=0 / scale-factor=0 / refine-intra=0 / refine-inter=0 / refine-mv=1 / refine-ctu-distortion=0 / no-limit-sao / ctu-info=0 / no-lowpass-dct / refine-analysis-type=0 / copy-pic=1 / max-ausize-factor=1.0 / no-dynamic-refine / no-single-sei / no-hevc-aq / no-svt / no-field / qp-adaptation-range=1.00 / scenecut-aware-qp=0conformance-window-offsets / right=0 / bottom=0 / decoder-max-rate=0 / no-vbv-live-multi-pass
Default : Yes
Forced : No
Color range : Limited
Color primaries : BT.709
Transfer characteristics : BT.709
Matrix coefficients : BT.709

Audio
ID : 2
Format : E-AC-3
Format/Info : Enhanced AC-3
Commercial name : Dolby Digital Plus
Codec ID : A_EAC3
Duration : 1 h 47 min
Bit rate mode : Constant
Bit rate : 640 kb/s
Channel(s) : 6 channels
Channel layout : L R C LFE Ls Rs
Sampling rate : 48.0 kHz
Frame rate : 31.250 FPS (1536 SPF)
Compression mode : Lossy
Stream size : 492 MiB (24%)
Title : English
Language : English
Service kind : Complete Main
Default : Yes
Forced : No

Text
ID : 3
Format : UTF-8
Codec ID : S_TEXT/UTF8
Codec ID/Info : UTF-8 Plain Text
Duration : 1 h 47 min
Bit rate : 107 b/s
Count of elements : 1975
Stream size : 83.9 KiB (0%)
Language : English
Default : No
Forced : No