You are here

The David Icke Show - The Dot Connector - Saturday 17th September

Primary tabs

SizeSeedsPeersCompleted
2.73 GiB41230
This torrent has no flags.


General The David Icke Show - The Dot Connector - Saturday 17th September.mkv Format : Matroska Format version : Version 4 File size : 2.73 GiB Duration : 1 h 16 min Overall bit rate : 5 141 kb/s Encoded date : UTC 2022-09-18 11:22:30 Writing application : mkvmerge v70.0.0 ('Caught A Lite Sneeze') 64-bit Writing library : libebml v1.4.2 + libmatroska v1.6.4 Video ID : 1 Format : AVC Format/Info : Advanced Video Codec Format profile : High@L4 Format settings : CABAC / 4 Ref Frames Format settings, CABAC : Yes Format settings, Reference : 4 frames Codec ID : V_MPEG4/ISO/AVC Duration : 1 h 16 min Bit rate : 5 011 kb/s Width : 1 920 pixels Height : 1 080 pixels Display aspect ratio : 16:9 Frame rate mode : Constant Frame rate : 25.000 FPS Color space : YUV Chroma subsampling : 4:2:0 Bit depth : 8 bits Scan type : Progressive Bits/(Pixel*Frame) : 0.097 Stream size : 2.66 GiB (97%) Writing library : x264 core 163 Default : Yes Forced : No Audio ID : 2 Format : AAC LC Format/Info : Advanced Audio Codec Low Complexity Codec ID : A_AAC-2 Duration : 1 h 16 min Bit rate : 128 kb/s Channel(s) : 2 channels Channel layout : L R Sampling rate : 48.0 kHz Frame rate : 46.875 FPS (1024 SPF) Compression mode : Lossy Stream size : 69.7 MiB (2%) Default : Yes Forced : No
Info File: 

David Icke talks about recent news.

the-david-icke-show-the-dot-connector-saturday-17th-september-mkv_snapshot_0.png the-david-icke-show-the-dot-connector-saturday-17th-september-mkv_snapshot_0.png the-david-icke-show-the-dot-connector-saturday-17th-september-mkv_snapshot_0.png the-david-icke-show-the-dot-connector-saturday-17th-september-mkv_snapshot_0.png