You are here

Synchronicity - 70 Years of David Icke

Primary tabs

SizeSeedsPeersCompleted
1.21 GiB60224
This torrent has no flags.


General Synchronicity - 70 Years of David Icke.mkv Format : Matroska Format version : Version 4 File size : 1.21 GiB Duration : 29 min 7 s Overall bit rate : 5 937 kb/s Encoded date : UTC 2022-09-17 20:20:03 Writing application : mkvmerge v70.0.0 ('Caught A Lite Sneeze') 64-bit Writing library : libebml v1.4.2 + libmatroska v1.6.4 Video ID : 1 Format : AVC Format/Info : Advanced Video Codec Format profile : High@L4 Format settings : CABAC / 4 Ref Frames Format settings, CABAC : Yes Format settings, Reference : 4 frames Codec ID : V_MPEG4/ISO/AVC Duration : 29 min 7 s Bit rate : 5 806 kb/s Width : 1 920 pixels Height : 1 080 pixels Display aspect ratio : 16:9 Frame rate mode : Constant Frame rate : 25.000 FPS Color space : YUV Chroma subsampling : 4:2:0 Bit depth : 8 bits Scan type : Progressive Bits/(Pixel*Frame) : 0.112 Stream size : 1.18 GiB (98%) Writing library : x264 core 155 Default : Yes Forced : No Audio ID : 2 Format : AAC LC Format/Info : Advanced Audio Codec Low Complexity Codec ID : A_AAC-2 Duration : 29 min 7 s Bit rate : 128 kb/s Channel(s) : 2 channels Channel layout : L R Sampling rate : 48.0 kHz Frame rate : 46.875 FPS (1024 SPF) Compression mode : Lossy Stream size : 26.7 MiB (2%) Default : Yes Forced : No
Info File: 

The story of David Icke's journey from footballer to world known author and researcher is an incredible ride, filled with ups and downs, twists and turns and everything in between. A truly unique example of what hard work, dedication and commitment can achieve. This short film takes you on that journey from the very beginning of David's life right through to his 70th year of 2022.
synchronicity-70-years-of-david-icke-mkv_thumbs.png