You are here

Out With The Ickes - Part 1 and 2

Primary tabs

SizeSeedsPeersCompleted
3.1 GiB30168
This torrent has no flags.


General Out With The Ickes - Part 1.mkv Format : Matroska Format version : Version 4 File size : 1.54 GiB Duration : 1 h 0 min Overall bit rate : 3 649 kb/s Encoded date : UTC 2022-09-17 20:19:27 Writing application : mkvmerge v70.0.0 ('Caught A Lite Sneeze') 64-bit Writing library : libebml v1.4.2 + libmatroska v1.6.4 Video ID : 1 Format : AVC Format/Info : Advanced Video Codec Format profile : High@L3.2 Format settings : CABAC / 4 Ref Frames Format settings, CABAC : Yes Format settings, Reference : 4 frames Codec ID : V_MPEG4/ISO/AVC Duration : 1 h 0 min Bit rate : 3 519 kb/s Width : 1 280 pixels Height : 720 pixels Display aspect ratio : 16:9 Frame rate mode : Constant Frame rate : 30.000 FPS Color space : YUV Chroma subsampling : 4:2:0 Bit depth : 8 bits Scan type : Progressive Bits/(Pixel*Frame) : 0.127 Stream size : 1.48 GiB (96%) Writing library : x264 core 163 Default : Yes Forced : No Color range : Limited Color primaries : BT.709 Transfer characteristics : BT.709 Matrix coefficients : BT.709 Audio ID : 2 Format : AAC LC Format/Info : Advanced Audio Codec Low Complexity Codec ID : A_AAC-2 Duration : 1 h 0 min Bit rate : 128 kb/s Channel(s) : 2 channels Channel layout : L R Sampling rate : 48.0 kHz Frame rate : 46.875 FPS (1024 SPF) Compression mode : Lossy Stream size : 55.2 MiB (4%) Default : Yes Forced : No
Info File: 

out-with-the-ickes-part-1-mkv_thumbs.pngout-with-the-ickes-part-2-mkv_thumbs.png

These three men represent one of the world's most-lied about and misrepresented families; whether it is the ideologies they live by or the viewpoints they have on world events, you will never hear anything vaguely resembling the truth of what they think in the mainstream. In this two-part interview, host Patrick Suttie sits down with David, Gareth, and Jaymie Icke to find out what these three men stand for, why they do what they do, and what their plans for the future are.