You are here

The Life of Rudolf Steiner

Primary tabs

SizeSeedsPeersCompleted
1.52 GiB70434
This torrent has no flags.


General life-rudolf-steiner.mkv Format : Matroska Format version : Version 4 File size : 1.52 GiB Duration : 58 min 59 s Overall bit rate : 3 681 kb/s Encoded date : UTC 2022-09-07 12:01:07 Writing application : mkvmerge v70.0.0 ('Caught A Lite Sneeze') 64-bit Writing library : libebml v1.4.2 + libmatroska v1.6.4 Video ID : 1 Format : AVC Format/Info : Advanced Video Codec Format profile : High@L4 Format settings : CABAC / 4 Ref Frames Format settings, CABAC : Yes Format settings, Reference : 4 frames Codec ID : V_MPEG4/ISO/AVC Duration : 58 min 59 s Bit rate : 3 486 kb/s Width : 1 920 pixels Height : 1 080 pixels Display aspect ratio : 16:9 Frame rate mode : Constant Frame rate : 29.970 (30000/1001) FPS Color space : YUV Chroma subsampling : 4:2:0 Bit depth : 8 bits Scan type : Progressive Bits/(Pixel*Frame) : 0.056 Stream size : 1.44 GiB (95%) Default : Yes Forced : No Color range : Limited Color primaries : BT.709 Transfer characteristics : BT.709 Matrix coefficients : BT.709 Audio ID : 2 Format : AAC LC Format/Info : Advanced Audio Codec Low Complexity Codec ID : A_AAC-2 Duration : 58 min 59 s Bit rate : 192 kb/s Channel(s) : 2 channels Channel layout : L R Sampling rate : 48.0 kHz Frame rate : 46.875 FPS (1024 SPF) Compression mode : Lossy Stream size : 80.9 MiB (5%) Default : Yes Forced : No
Info File: 

The Life of Rudolf Steiner tells the story of his remarkable life, interwoven with contemporary examples of how his ideas and insights have influenced pioneering work all over the world, including,for example, Waldorf schools and anthroposophy. Who was this man whose influence is increasingly felt one hundred and fifty years after his birth, despite the fact that his work is still largely ignored by mainstream culture? And above all what was the source of these insights which, until his death in 1925, he shared with those who “had the ears to hear and the eyes to see”? Since his death, Steiner’s vision has grown in both relevance and urgency.
Featuring: Jonathan Stedall (narrator), Jeremy Naydler, Ben Cherry, Richard Tarnas, Margaretha Solstad, Robert McDermott, Jakes Jayakaran, Arthur Zajonc, Craig Holdrege, Rev. Dr. Fraser Watts, Peter Blom
Audio Languages: English
Subtitles: English
Featuring: Jonathan Stedall (narrator), Jeremy Naydler, Ben Cherry, Richard Tarnas, Margaretha Solstad, Robert McDermott, Jakes Jayakaran, Arthur Zajonc, Craig Holdrege, Rev. Dr. Fraser Watts, Peter Blom

Comments

Thanks for posting. Steiner has been a massive influence for my research and personal growth in the past 7 years. I also teach classes for MysTech.org ... I have a massive archive of Steiner's works as well as accompanying etheric and goethean sciences. I currently don't have the bandwith to seed my own torrents, but please feel free to email me at theaetherforce@gmail.com if you are searching for anything. Chances are I have it.