You are here

The Legacy of Rudolf Steiner

Primary tabs

SizeSeedsPeersCompleted
1.51 GiB70438
This torrent has no flags.


General legacy-rudolf-steiner.mkv Format : Matroska Format version : Version 4 File size : 1.51 GiB Duration : 58 min 58 s Overall bit rate : 3 664 kb/s Encoded date : UTC 2022-09-07 12:05:39 Writing application : mkvmerge v70.0.0 ('Caught A Lite Sneeze') 64-bit Writing library : libebml v1.4.2 + libmatroska v1.6.4 Video ID : 1 Format : AVC Format/Info : Advanced Video Codec Format profile : High@L4 Format settings : CABAC / 4 Ref Frames Format settings, CABAC : Yes Format settings, Reference : 4 frames Format settings, GOP : M=3, N=30 Codec ID : V_MPEG4/ISO/AVC Duration : 58 min 58 s Bit rate : 3 470 kb/s Width : 1 920 pixels Height : 1 080 pixels Display aspect ratio : 16:9 Frame rate mode : Constant Frame rate : 29.970 (30000/1001) FPS Color space : YUV Chroma subsampling : 4:2:0 Bit depth : 8 bits Scan type : Progressive Bits/(Pixel*Frame) : 0.056 Stream size : 1.43 GiB (95%) Default : Yes Forced : No Color range : Limited Color primaries : BT.709 Transfer characteristics : BT.709 Matrix coefficients : BT.709 Audio ID : 2 Format : AAC LC Format/Info : Advanced Audio Codec Low Complexity Codec ID : A_AAC-2 Duration : 58 min 58 s Bit rate : 192 kb/s Channel(s) : 2 channels Channel layout : L R Sampling rate : 48.0 kHz Frame rate : 46.875 FPS (1024 SPF) Compression mode : Lossy Stream size : 80.8 MiB (5%) Default : Yes Forced : No
Info File: 

For those fortunate enough to encounter them, the unique insights and research of Rudolf Steiner have long been a source of wonder and inspiration. Since Steiner’s death in 1925, his vision has grown in both relevance and urgency.

The Legacy of Rudolf Steiner explores some of the many current initiatives inspired by his work, including his pioneering efforts in such fields as Waldorf education, anthroposophy, eurythmy and biodynamic agriculture. The film features teachers, doctors, farmers, as well as social and business entrepreneurs, bankers and economists at work all over the world, all of them drawing on the research and the indications given by Steiner to deepen our understanding of the human being and of the world in which we live.

Inspired by Steiner’s insights, and in response to the needs of the world, people in all walks of life are working creatively to take his unique contribution to cultural, spiritual and scientific renewal into the future.
Featuring: Jonathan Stedall (narrator), Dennis Klocek, Arthur Zajonc, Peter Selg, Penny Baring, Jack Petrash, Clarence Harvey, Allegra Alessandri, Martin Ping, Chris Benziger, Matias Baker, Joseph Papas, Rev. Dr. Fraser Watts, Bob Ballard, Michael Bate, David McGavin, Ursula Flatters, Michael Evans, Carina Vaca Zeller
Audio Languages: English
Featuring: Jonathan Stedall (narrator), Dennis Klocek, Arthur Zajonc, Peter Selg, Penny Baring, Jack Petrash, Clarence Harvey, Allegra Alessandri, Martin Ping, Chris Benziger, Matias Baker, Joseph Papas, Rev. Dr. Fraser Watts, Bob Ballard, Michael Bate, David McGavin, Ursula Flatters, Michael Evans, Carina Vaca Zeller