You are here

Breaking Archontic Control with David Icke

Primary tabs

SizeSeedsPeersCompleted
1.95 GiB30332
This torrent has no flags.


General breaking-archontic-control-david-icke.mkv Format : Matroska Format version : Version 4 File size : 1.95 GiB Duration : 1 h 15 min Overall bit rate : 3 692 kb/s Encoded date : UTC 2022-09-07 12:09:44 Writing application : mkvmerge v70.0.0 ('Caught A Lite Sneeze') 64-bit Writing library : libebml v1.4.2 + libmatroska v1.6.4 Video ID : 1 Format : AVC Format/Info : Advanced Video Codec Format profile : High@L4 Format settings : CABAC / 4 Ref Frames Format settings, CABAC : Yes Format settings, Reference : 4 frames Codec ID : V_MPEG4/ISO/AVC Duration : 1 h 15 min Bit rate : 3 498 kb/s Width : 1 920 pixels Height : 1 080 pixels Display aspect ratio : 16:9 Frame rate mode : Constant Frame rate : 23.976 (24000/1001) FPS Color space : YUV Chroma subsampling : 4:2:0 Bit depth : 8 bits Scan type : Progressive Bits/(Pixel*Frame) : 0.070 Stream size : 1.85 GiB (95%) Default : Yes Forced : No Color range : Limited Color primaries : BT.709 Transfer characteristics : BT.709 Matrix coefficients : BT.709 Audio ID : 2 Format : AAC LC Format/Info : Advanced Audio Codec Low Complexity Codec ID : A_AAC-2 Duration : 1 h 15 min Bit rate : 192 kb/s Channel(s) : 2 channels Channel layout : L R Sampling rate : 48.0 kHz Frame rate : 46.875 FPS (1024 SPF) Compression mode : Lossy Stream size : 104 MiB (5%) Default : Yes Forced : No
Info File: 

David Icke calls us to question the nature of the reality that we are living in, so that we can see the machinations manipulating our minds into lower states. We can use the healing force of love to free ourselves from the constant fear and anxiety. Breaking free from this archontic control enables us to tap into a reality beyond these projected paradigms and bring an end to the mass manipulation of our population. This interview was filmed, on location in London, England.

Instructor/Host: Regina Meredith
Featuring: David Icke
Audio Languages: English
Subtitles: English