You are here

Jon Rappoport on Losing Our Minds Pseudo-psychiatry

Primary tabs

SizeSeedsPeersCompleted
1.46 GiB60398
This torrent has no flags.


General Jon Rappoport on Losing Our Minds Pseudo-psychiatry.mkv Format : Matroska Format version : Version 4 File size : 1.46 GiB Duration : 56 min 45 s Overall bit rate : 3 690 kb/s Encoded date : UTC 2022-09-06 12:43:54 Writing application : mkvmerge v70.0.0 ('Caught A Lite Sneeze') 64-bit Writing library : libebml v1.4.2 + libmatroska v1.6.4 Video ID : 1 Format : AVC Format/Info : Advanced Video Codec Format profile : High@L4 Format settings : CABAC / 4 Ref Frames Format settings, CABAC : Yes Format settings, Reference : 4 frames Codec ID : V_MPEG4/ISO/AVC Duration : 56 min 45 s Bit rate : 3 496 kb/s Width : 1 920 pixels Height : 1 080 pixels Display aspect ratio : 16:9 Frame rate mode : Constant Frame rate : 29.970 (30000/1001) FPS Color space : YUV Chroma subsampling : 4:2:0 Bit depth : 8 bits Scan type : Progressive Bits/(Pixel*Frame) : 0.056 Stream size : 1.39 GiB (95%) Default : Yes Forced : No Color range : Limited Color primaries : BT.709 Transfer characteristics : BT.709 Matrix coefficients : BT.709 Audio ID : 2 Format : AAC LC Format/Info : Advanced Audio Codec Low Complexity Codec ID : A_AAC-2 Duration : 56 min 45 s Bit rate : 192 kb/s Channel(s) : 2 channels Channel layout : L R Sampling rate : 48.0 kHz Frame rate : 46.875 FPS (1024 SPF) Compression mode : Lossy Stream size : 78.0 MiB (5%) Default : Yes Forced : No
Info File: 


Where's the scientific proof that chemical imbalances or genetic aberrations cause mental health disorders? Investigative reporter Jon Rappoport scrutinizes the evidence in this interview with Regina Meredith.

A free-lance investigative reporter for over 30 years, Jon Rappoport lectures all over the US asking: Who runs the world and what can we do about it? Over the last 30 years, Jon's independent research has encompassed such areas as deep politics, conspiracies, alternative health, the potential of the human imagination, mind control, the medical cartel, symbology, and solutions to the takeover of the planet by hidden elites.
19
Instructor/Host: Regina Meredith
Featuring: Jon Rappoport
Audio Languages: English

Comments

This is right up my alley!

I oftentimes Google search for information on the video/audiobook/ebook I am uploading and cut and paste the text into the torrent description. It helps give people a better understanding of what's in the torrent etc.