You are here

Jon Rappoport on Secret Societies

Primary tabs

SizeSeedsPeersCompleted
1.5 GiB40362
This torrent has no flags.


General Jon Rappoport on Secret Societies.mkv Format : Matroska Format version : Version 4 File size : 1.50 GiB Duration : 58 min 5 s Overall bit rate : 3 693 kb/s Encoded date : UTC 2022-09-06 13:05:42 Writing application : mkvmerge v70.0.0 ('Caught A Lite Sneeze') 64-bit Writing library : libebml v1.4.2 + libmatroska v1.6.4 Video ID : 1 Format : AVC Format/Info : Advanced Video Codec Format profile : High@L4 Format settings : CABAC / 4 Ref Frames Format settings, CABAC : Yes Format settings, Reference : 4 frames Format settings, GOP : M=3, N=30 Codec ID : V_MPEG4/ISO/AVC Duration : 58 min 5 s Bit rate : 3 498 kb/s Width : 1 920 pixels Height : 1 080 pixels Display aspect ratio : 16:9 Frame rate mode : Constant Frame rate : 29.970 (30000/1001) FPS Color space : YUV Chroma subsampling : 4:2:0 Bit depth : 8 bits Scan type : Progressive Bits/(Pixel*Frame) : 0.056 Stream size : 1.42 GiB (95%) Default : Yes Forced : No Color range : Limited Color primaries : BT.709 Transfer characteristics : BT.709 Matrix coefficients : BT.709 Audio ID : 2 Format : AAC LC Format/Info : Advanced Audio Codec Low Complexity Codec ID : A_AAC-2 Duration : 58 min 5 s Bit rate : 192 kb/s Channel(s) : 2 channels Channel layout : L R Sampling rate : 48.0 kHz Frame rate : 46.875 FPS (1024 SPF) Compression mode : Lossy Stream size : 79.8 MiB (5%) Default : Yes Forced : No
Info File: 

Are we living in a free society or are we being manipulated by those secretly in power? Investigative reporter Jon Rappoport explained the hidden traditions limiting our freedoms in a enlightening conversation with Regina Meredith.

A free-lance investigative reporter for over 30 years, Jon Rappoport lectures all over the US asking: Who runs the world and what can we do about it? Over the last 30 years, Jon's independent research has encompassed such areas as deep politics, conspiracies, alternative health, the potential of the human imagination, mind control, the medical cartel, symbology, and solutions to the takeover of the planet by hidden elites.
31
Instructor/Host: Regina Meredith
Featuring: Jon Rappoport
Audio Languages: English