You are here

Initiation Season 4

Primary tabs

SizeSeedsPeersCompleted
7.22 GiB001336
This torrent has no flags.


General Initiation Season 4\S4Ep1 Architects of the 6th Dimension.mkv Format : Matroska Format version : Version 4 File size : 817 MiB Duration : 26 min 4 s Overall bit rate : 4 382 kb/s Encoded date : UTC 2022-09-05 21:30:42 Writing application : mkvmerge v70.0.0 ('Caught A Lite Sneeze') 64-bit Writing library : libebml v1.4.2 + libmatroska v1.6.4 Video ID : 1 Format : AVC Format/Info : Advanced Video Codec Format profile : High@L4 Format settings : CABAC / 4 Ref Frames Format settings, CABAC : Yes Format settings, Reference : 4 frames Codec ID : V_MPEG4/ISO/AVC Duration : 26 min 4 s Bit rate : 4 188 kb/s Width : 1 920 pixels Height : 1 080 pixels Display aspect ratio : 16:9 Frame rate mode : Constant Frame rate : 23.976 (24000/1001) FPS Color space : YUV Chroma subsampling : 4:2:0 Bit depth : 8 bits Scan type : Progressive Bits/(Pixel*Frame) : 0.084 Stream size : 781 MiB (96%) Default : Yes Forced : No Color range : Limited Color primaries : BT.709 Transfer characteristics : BT.709 Matrix coefficients : BT.709 Audio ID : 2 Format : AAC LC Format/Info : Advanced Audio Codec Low Complexity Codec ID : A_AAC-2 Duration : 26 min 4 s Bit rate : 192 kb/s Channel(s) : 2 channels Channel layout : L R Sampling rate : 48.0 kHz Frame rate : 46.875 FPS (1024 SPF) Compression mode : Lossy Stream size : 35.8 MiB (4%) Default : Yes Forced : No
Info File: 

Matias De Stefano guides us through the conscious evolution needed to transcend the nine dimensions that make up our reality. This journey will deepen your understanding of the structure of our shared reality and the importance of your presence.

Season 4: Explore how architects of the sixth dimension combine sacred geometry with base elements to form physical matter, as Matias explains the connections between the Zodiac, portals, the structure of spacetime, and the Orion wars.
Host: Matías De Stefano

Tags: 

Comments

Great, thanks for sharing here!

Thank you very much my friend, I appreciate it a lot!

Now we just need some individuals who will stay as seeds for a few months! I will be one of them if i will be able to download it of course!

Yeah, the data is all there. We just have to wait for Nikolay to come back and seed.

This is the archive:

S4Ep1 Architects of the 6th Dimension.mkv 817.41 MiB
S4Ep2 Polarities of Grand Design.mkv 662.27 MiB
S4Ep3 Evolutionary Patterns of the Universe.mkv 671.92 MiB
S4Ep4 Portals of Time & Space.mkv 707.41 MiB
S4Ep5 Decoding the Zodiac.mkv 707.82 MiB
S4Ep6 Unifying Body, Soul & Spirit.mkv 716.29 MiB
S4Ep7 The Confederation and Divine Evolution.mkv 696.16 MiB
S4Ep8 Awakening The Conscious Ego.mkv 857.62 MiB
S4Ep9 Evolving Beyond Survival.mkv 723.26 MiB
S4Ep10 Transcending Limits of Creation.mkv 833.77 MiB