You are here

The Reptilian Agenda with Credo Mutwa and David Icke

Primary tabs

SizeSeedsPeersCompleted
5.03 GiB30302
This torrent has no flags.


General The Reptilian Agenda with Credo Mutwa - Part 1.mkv Format : Matroska Format version : Version 4 File size : 2.83 GiB Duration : 3 h 35 min Overall bit rate : 1 880 kb/s Encoded date : UTC 2022-09-02 06:34:03 Writing application : mkvmerge v70.0.0 ('Caught A Lite Sneeze') 64-bit Writing library : libebml v1.4.2 + libmatroska v1.6.4 Video ID : 1 Format : AVC Format/Info : Advanced Video Codec Format profile : High@L3.1 Format settings : CABAC / 4 Ref Frames Format settings, CABAC : Yes Format settings, Reference : 4 frames Codec ID : V_MPEG4/ISO/AVC Duration : 3 h 35 min Bit rate : 1 750 kb/s Width : 720 pixels Height : 540 pixels Display aspect ratio : 4:3 Frame rate mode : Constant Frame rate : 29.970 (30000/1001) FPS Color space : YUV Chroma subsampling : 4:2:0 Bit depth : 8 bits Scan type : Progressive Bits/(Pixel*Frame) : 0.150 Stream size : 2.63 GiB (93%) Writing library : x264 core 155 Language : English Default : Yes Forced : No Audio ID : 2 Format : AAC LC Format/Info : Advanced Audio Codec Low Complexity Codec ID : A_AAC-2 Duration : 3 h 35 min Bit rate : 128 kb/s Channel(s) : 2 channels Channel layout : L R Sampling rate : 48.0 kHz Frame rate : 46.875 FPS (1024 SPF) Compression mode : Lossy Stream size : 197 MiB (7%) Language : English Default : Yes Forced : No
Info File: 

Filmed in South Africa, David Icke speaks to late Shaman Credo Mutwa who is one of the keepers of the ancient knowledge. This incredible 2 part documentary shows how our reality is very different from the one we're led to believe exists.