You are here

The Lion Sleeps No More - David Icke - Brixton Academy 2010

Primary tabs

SizeSeedsPeersCompleted
2.13 GiB20154
This torrent has no flags.


General The Lion Sleeps No More - David Icke - Brixton Academy 2010 - Part 1.mkv Format : Matroska Format version : Version 4 File size : 708 MiB Duration : 1 h 37 min Overall bit rate : 1 014 kb/s Encoded date : UTC 2022-09-02 06:33:43 Writing application : mkvmerge v70.0.0 ('Caught A Lite Sneeze') 64-bit Writing library : libebml v1.4.2 + libmatroska v1.6.4 Video ID : 1 Format : AVC Format/Info : Advanced Video Codec Format profile : High@L3.1 Format settings : CABAC / 4 Ref Frames Format settings, CABAC : Yes Format settings, Reference : 4 frames Codec ID : V_MPEG4/ISO/AVC Duration : 1 h 37 min Bit rate : 884 kb/s Width : 1 024 pixels Height : 576 pixels Display aspect ratio : 16:9 Frame rate mode : Constant Frame rate : 25.000 FPS Color space : YUV Chroma subsampling : 4:2:0 Bit depth : 8 bits Scan type : Progressive Bits/(Pixel*Frame) : 0.060 Stream size : 617 MiB (87%) Writing library : x264 core 155 Default : Yes Forced : No Audio ID : 2 Format : AAC LC Format/Info : Advanced Audio Codec Low Complexity Codec ID : A_AAC-2 Duration : 1 h 37 min Bit rate : 128 kb/s Channel(s) : 2 channels Channel layout : L R Sampling rate : 48.0 kHz Frame rate : 46.875 FPS (1024 SPF) Compression mode : Lossy Stream size : 89.4 MiB (13%) Default : Yes Forced : No
Info File: 


Once again Live from Brixton Academy in London, after an extensive Tour of the USA and Australia he returns to London.