You are here

Beyond the Cutting Edge - David Icke (Brixton 2008)

Primary tabs

SizeSeedsPeersCompleted
1.75 GiB20174
This torrent has no flags.


General Beyond the Cutting Edge - David Icke (Brixton 2008) - Part 1.mkv Format : Matroska Format version : Version 4 File size : 661 MiB Duration : 2 h 37 min Overall bit rate : 585 kb/s Encoded date : UTC 2022-09-02 06:02:55 Writing application : mkvmerge v70.0.0 ('Caught A Lite Sneeze') 64-bit Writing library : libebml v1.4.2 + libmatroska v1.6.4 Video ID : 1 Format : AVC Format/Info : Advanced Video Codec Format profile : High@L3 Format settings : CABAC / 4 Ref Frames Format settings, CABAC : Yes Format settings, Reference : 4 frames Codec ID : V_MPEG4/ISO/AVC Duration : 2 h 37 min Bit rate : 455 kb/s Width : 634 pixels Height : 368 pixels Display aspect ratio : 1.720 Original display aspect rat : 1.719 Frame rate mode : Constant Frame rate : 29.970 (30000/1001) FPS Color space : YUV Chroma subsampling : 4:2:0 Bit depth : 8 bits Scan type : Progressive Bits/(Pixel*Frame) : 0.065 Stream size : 513 MiB (78%) Writing library : x264 core 155 Default : Yes Forced : No Audio ID : 2 Format : AAC LC Format/Info : Advanced Audio Codec Low Complexity Codec ID : A_AAC-2 Duration : 2 h 37 min Bit rate : 128 kb/s Channel(s) : 2 channels Channel layout : L R Sampling rate : 48.0 kHz Frame rate : 46.875 FPS (1024 SPF) Compression mode : Lossy Stream size : 145 MiB (22%) Default : Yes Forced : No
Info File: 

For the Third time in 3 years David sells out the 2500 seater Brixton Academy in London for his latest show.