You are here

In Conversation with David Icke 1080p

Primary tabs

SizeSeedsPeersCompleted
15.13 GiB30206
This torrent has no flags.


General In Conversation with David Icke - Episode 1 - An Introduction to David.mkv Format : Matroska Format version : Version 4 File size : 1.63 GiB Duration : 39 min 8 s Overall bit rate : 5 961 kb/s Encoded date : UTC 2022-09-01 18:36:39 Writing application : mkvmerge v70.0.0 ('Caught A Lite Sneeze') 64-bit Writing library : libebml v1.4.2 + libmatroska v1.6.4 Video ID : 1 Format : AVC Format/Info : Advanced Video Codec Format profile : High@L4 Format settings : CABAC / 4 Ref Frames Format settings, CABAC : Yes Format settings, Reference : 4 frames Codec ID : V_MPEG4/ISO/AVC Duration : 39 min 7 s Bit rate : 5 833 kb/s Width : 1 920 pixels Height : 1 080 pixels Display aspect ratio : 16:9 Frame rate mode : Constant Frame rate : 25.000 FPS Color space : YUV Chroma subsampling : 4:2:0 Bit depth : 8 bits Scan type : Progressive Bits/(Pixel*Frame) : 0.113 Stream size : 1.59 GiB (98%) Writing library : x264 core 155 Default : Yes Forced : No Audio ID : 2 Format : AAC LC Format/Info : Advanced Audio Codec Low Complexity Codec ID : A_AAC-2 Duration : 39 min 8 s Bit rate : 128 kb/s Channel(s) : 2 channels Channel layout : L R Sampling rate : 48.0 kHz Frame rate : 46.875 FPS (1024 SPF) Compression mode : Lossy Stream size : 35.8 MiB (2%) Default : Yes Forced : No
Info File: 

The First Ickonic Original Series, in these 10 Episodes Amanda Chamber's sits down with David Icke and takes a deeper look into some of his theories and teachings, and something that is so rarely done, a look at the man behind the information and who he really is. What drives him on? Why after 30 years is he still going?