You are here

The Nature of Reality - Presented by David Icke (2022) 1080p

Primary tabs

SizeSeedsPeersCompleted
10.43 GiB70412
This torrent has no flags.


General E001.mkv Format : Matroska Format version : Version 4 File size : 798 MiB Duration : 19 min 38 s Overall bit rate : 5 676 kb/s Encoded date : UTC 2022-09-01 15:50:48 Writing application : mkvmerge v70.0.0 ('Caught A Lite Sneeze') 64-bit Writing library : libebml v1.4.2 + libmatroska v1.6.4 Video ID : 1 Format : AVC Format/Info : Advanced Video Codec Format profile : High@L4 Format settings : CABAC / 4 Ref Frames Format settings, CABAC : Yes Format settings, Reference : 4 frames Codec ID : V_MPEG4/ISO/AVC Duration : 19 min 38 s Bit rate : 5 545 kb/s Width : 1 920 pixels Height : 1 080 pixels Display aspect ratio : 16:9 Frame rate mode : Constant Frame rate : 25.000 FPS Color space : YUV Chroma subsampling : 4:2:0 Bit depth : 8 bits Scan type : Progressive Bits/(Pixel*Frame) : 0.107 Stream size : 779 MiB (98%) Writing library : x264 core 155 Default : Yes Forced : No Audio ID : 2 Format : AAC LC Format/Info : Advanced Audio Codec Low Complexity Codec ID : A_AAC-2 Duration : 19 min 38 s Bit rate : 128 kb/s Channel(s) : 2 channels Channel layout : L R Sampling rate : 48.0 kHz Frame rate : 46.875 FPS (1024 SPF) Compression mode : Lossy Stream size : 18.0 MiB (2%) Default : Yes Forced : No
Info File: 

World renowned author and speaker David Icke presents this ground-breaking series on the big questions we face. Who are we? Where are we? Why are we all here at this time in this place? Understanding the nature of reality is to understand the very foundation of our existence, the mainstream machine is desperate to keep this vital information from the population. If humanity has a true understanding of the nature of reality then the world will change overnight, and the system knows that very fact. In this 13 part series David breaks down the different aspects to this subject and how they all piece together and affect you.