You are here

Ancient Aliens s18e11 Ancient Aliens On Location: Incredible Structures [x265]

Primary tabs

SizeSeedsPeersCompleted
1.15 GiB11198
This torrent has no flags.


Ancient Aliens has traveled to many mysterious sites. Now, Giorgio Tsoukalos takes a look back at some of the most incredible structures we've visited all over the world.

https://www.imdb.com/title/tt1643266/

https://www.reddit.com/user/ConspiracyTorrents/posts/



Quote:

General
Unique ID : 271745265370811858641113092234069670878 (0xCC703C007AA536620171D0268737FBDE)
Complete name : D:\upload\Ancient Aliens S18E12 Ancient Aliens On Location - Extraordinary Encounters 1080p WEB-DL x264 An0mal1\Ancient Aliens S18E12 Ancient Aliens On Location - Extraordinary Encounters 1080p WEB-DL x264 An0mal1.mkv
Format : Matroska
Format version : Version 4
File size : 2.26 GiB
Duration : 41 min 30 s
Overall bit rate mode : Variable
Overall bit rate : 7 794 kb/s
Movie name : Downloaded from https://www.reddit.com/user/ConspiracyTorrents/posts/
Description : Giorgio Tsoukalos takes a look back at the most extraordinary encounters that, as far as he's concerned, provide evidence of an extraterrestrial presence on Earth.
Writing application : Lavf58.29.100
Writing library : Lavf58.29.100
ErrorDetectionType : Per level 1
Attachments : B0B5WCQDJY.jpg
DATE : 2022
EPISODE_ID : 12
SEASON_NUMBER : 18
SHOW : Ancient Aliens Season 18

Video
ID : 1
Format : AVC
Format/Info : Advanced Video Codec
Format profile : Main@L4
Format settings : CABAC / 3 Ref Frames
Format settings, CABAC : Yes
Format settings, Reference frames : 3 frames
Codec ID : V_MPEG4/ISO/AVC
Duration : 41 min 30 s
Bit rate mode : Variable
Bit rate : 7 415 kb/s
Maximum bit rate : 6 000 kb/s
Width : 1 920 pixels
Height : 1 080 pixels
Display aspect ratio : 16:9
Frame rate mode : Constant
Frame rate : 23.976 (24000/1001) FPS
Color space : YUV
Chroma subsampling : 4:2:0
Bit depth : 8 bits
Scan type : Progressive
Bits/(Pixel*Frame) : 0.149
Stream size : 2.15 GiB (95%)
Default : Yes
Forced : No

Audio
ID : 2
Format : E-AC-3
Format/Info : Enhanced AC-3
Commercial name : Dolby Digital Plus
Codec ID : A_EAC3
Duration : 41 min 30 s
Bit rate mode : Constant
Bit rate : 224 kb/s
Channel(s) : 2 channels
Channel layout : L R
Sampling rate : 48.0 kHz
Frame rate : 31.250 FPS (1536 SPF)
Bit depth : 32 bits
Compression mode : Lossy
Stream size : 66.5 MiB (3%)
Title : English
Language : English
Service kind : Complete Main
Default : Yes
Forced : No