You are here

Code X: Ancient Wisdom Revealed (2022)

Primary tabs

SizeSeedsPeersCompleted
3.44 GiB151564
This torrent has no flags.


Could encryptions within famous Renaissance works of art hold encoded wisdom from ancient Egypt? Embarking on a journey to expose the real life Da Vinci Code, entrepreneur and polymath Robert Edward Grant delves into the depths of divine mathematical proportions to explore patterns within the nature of our universe.
After spending a lifetime traversing the world researching esoteric iconography, Grant decodes encryptions within artwork by Renaissance era geniuses like Leonardo da Vinci and Michelangelo. Revealing a treasure trove of universal wisdom linking art, philosophy, and science, Grant illustrates how educational models throughout history lead us to temples and pyramids of Egypt and the ancient world.

https://www.gaia.com/series/code-x

https://www.reddit.com/user/ConspiracyTorrents/posts/







Quote:

General
Complete name : D:\upload\Code X with Robert Grant (2022)\Season 1 (2022) 720p GAIA x264\S01E01 - Decrypting Da Vinci's Vitruvian Man.mp4
Format : MPEG-4
Format profile : Base Media
Codec ID : isom (isom/iso2/avc1/mp41)
File size : 397 MiB
Duration : 24 min 25 s
Overall bit rate mode : Variable
Overall bit rate : 2 272 kb/s
Writing application : Lavf57.71.100

Video
ID : 1
Format : AVC
Format/Info : Advanced Video Codec
Format profile : Main@L3.1
Format settings : CABAC / 4 Ref Frames
Format settings, CABAC : Yes
Format settings, Reference frames : 4 frames
Codec ID : avc1
Codec ID/Info : Advanced Video Coding
Duration : 24 min 25 s
Bit rate : 2 074 kb/s
Width : 1 280 pixels
Height : 720 pixels
Display aspect ratio : 16:9
Frame rate mode : Variable
Frame rate : 23.976 (24000/1001) FPS
Minimum frame rate : 23.974 FPS
Maximum frame rate : 23.981 FPS
Color space : YUV
Chroma subsampling : 4:2:0
Bit depth : 8 bits
Scan type : Progressive
Bits/(Pixel*Frame) : 0.094
Stream size : 362 MiB (91%)
Color range : Limited
Color primaries : BT.709
Transfer characteristics : BT.709
Matrix coefficients : BT.709
Codec configuration box : avcC

Audio
ID : 2
Format : AAC LC
Format/Info : Advanced Audio Codec Low Complexity
Codec ID : mp4a-40-2
Duration : 24 min 25 s
Bit rate mode : Variable
Bit rate : 192 kb/s
Maximum bit rate : 252 kb/s
Channel(s) : 2 channels
Channel layout : L R
Sampling rate : 48.0 kHz
Frame rate : 46.875 FPS (1024 SPF)
Compression mode : Lossy
Stream size : 33.4 MiB (8%)
Default : Yes
Alternate group : 1