You are here

Teachings of Ram Dass (2020) Seasons 1-4

Primary tabs

SizeSeedsPeersCompleted
4.87 GiB82274
This torrent has no flags.


We invite you to sit with the Teachings of Ram Dass, an exclusive series on Gaia, offering accessible yet profound essential teachings from Ram Dass. Each session is a short meditation on a different aspect of universal consciousness and connection.
Ram Dass was a beloved spiritual author and teacher who pioneered the integration of Eastern philosophies into the fabric of America.

https://www.gaia.com/series/teachings-ram-dass

https://www.reddit.com/user/ConspiracyTorrents/posts/







Quote:

Video
ID : 1
Format : AVC
Format/Info : Advanced Video Codec
Format profile : Main@L3.1
Format settings : CABAC / 4 Ref Frames
Format settings, CABAC : Yes
Format settings, Reference frames : 4 frames
Codec ID : avc1
Codec ID/Info : Advanced Video Coding
Duration : 5 min 36 s
Bit rate : 1 991 kb/s
Width : 1 280 pixels
Height : 720 pixels
Display aspect ratio : 16:9
Frame rate mode : Variable
Frame rate : 23.976 (24000/1001) FPS
Minimum frame rate : 23.974 FPS
Maximum frame rate : 23.981 FPS
Color space : YUV
Chroma subsampling : 4:2:0
Bit depth : 8 bits
Scan type : Progressive
Bits/(Pixel*Frame) : 0.090
Stream size : 79.8 MiB (91%)
Color range : Limited
Color primaries : BT.709
Transfer characteristics : BT.709
Matrix coefficients : BT.709
Codec configuration box : avcC

Audio
ID : 2
Format : AAC LC
Format/Info : Advanced Audio Codec Low Complexity
Codec ID : mp4a-40-2
Duration : 5 min 36 s
Bit rate mode : Variable
Bit rate : 192 kb/s
Maximum bit rate : 281 kb/s
Channel(s) : 2 channels
Channel layout : L R
Sampling rate : 48.0 kHz
Frame rate : 46.875 FPS (1024 SPF)
Compression mode : Lossy
Stream size : 7.65 MiB (9%)
Default : Yes
Alternate group : 1

Comments

I literally just downloaded season 3 the other day, great work buddy.

I like Ram Dass a lot. I'm working my way through his content.