You are here

Samadhi: Part 3 - The Pathless Path (2022)

Primary tabs

SizeSeedsPeersCompleted
1.39 GiB30198
This torrent has no flags.


The path is you and every obstacle on the path is you.
The path to Samadhi is not the sort of path where you put one foot in front of another to get to some destination. The path is a stripping away of illusion, a waking-up to exactly who, where and what one is. Samadhi is freedom from identification with the limited self; freedom from our conditioning; freedom from suffering. Sadhana or spiritual practice that leads to Samadhi has two fundamental aspects: the first aspect is purifying the self structure through practices which shift the energy out of conditioned patterns and pathological thinking. When the energy is free it facilitates greater interconnection, love, and expansion into higher levels of self or soul. What you think of as “other” becomes integrated into you. The self structure becomes like a node in increasingly higher levels of mind. The paradox is that any practices we use to become free of the unconscious conditioning are themselves conditioned. At a point all techniques, all concepts, all doing, all attempts to realize Samadhi have to be let go of. The second aspect of practice could be called formless self-inquiry which is about becoming aware of awareness itself; waking up to the realization that all levels of self or soul are ultimately empty. Like the wings of a bird these two aspects of sadhana, mindfulness and mind emptiness carry one towards Samadhi, the collapse of all duality.

https://www.gaia.com/video/samadhi-the-pathless-path-0

https://www.reddit.com/user/ConspiracyTorrents/posts/





Quote:

Video
ID : 1
Format : AVC
Format/Info : Advanced Video Codec
Format profile : Main@L3.1
Format settings : CABAC / 4 Ref Frames
Format settings, CABAC : Yes
Format settings, Reference frames : 4 frames
Codec ID : avc1
Codec ID/Info : Advanced Video Coding
Duration : 1 h 30 min
Bit rate : 1 994 kb/s
Width : 1 280 pixels
Height : 720 pixels
Display aspect ratio : 16:9
Frame rate mode : Constant
Frame rate : 29.970 (30000/1001) FPS
Color space : YUV
Chroma subsampling : 4:2:0
Bit depth : 8 bits
Scan type : Progressive
Bits/(Pixel*Frame) : 0.072
Stream size : 1.26 GiB (91%)
Color range : Limited
Color primaries : BT.709
Transfer characteristics : BT.709
Matrix coefficients : BT.709
Codec configuration box : avcC

Audio
ID : 2
Format : AAC LC
Format/Info : Advanced Audio Codec Low Complexity
Codec ID : mp4a-40-2
Duration : 1 h 30 min
Bit rate mode : Constant
Bit rate : 192 kb/s
Channel(s) : 2 channels
Channel layout : L R
Sampling rate : 48.0 kHz
Frame rate : 46.875 FPS (1024 SPF)
Compression mode : Lossy
Stream size : 124 MiB (9%)
Default : Yes
Alternate group : 1