You are here

Missing Links with Gregg Braden (2017) Season 1-3

Primary tabs

SizeSeedsPeersCompleted
19.91 GiB11263
This torrent has no flags.


Explore the deep truths of our origin, history, destiny and fate, with celebrated author and luminary Gregg Braden.

Season 1
Connect science and spirituality to reveal a new understanding of humanity’s history, the origins of civilization and the power of our heart’s intelligence.

Season 2
Are we living in a virtual reality? Discover the societal and spiritual implications that arise when we recognize our world as an artificially constructed computer simulation.

Season 3
Discover the Divine Matrix, how it influences you, and how you can influence it. This could dramatically improve your life, your wellbeing, and the lives of all of those around you.

https://www.gaia.com/series/missing-links

https://www.reddit.com/user/ConspiracyTorrents/posts/










Quote:

Video
ID : 1
Format : AVC
Format/Info : Advanced Video Codec
Format profile : Main@L3.1
Format settings : CABAC / 4 Ref Frames
Format settings, CABAC : Yes
Format settings, Reference frames : 4 frames
Codec ID : avc1
Codec ID/Info : Advanced Video Coding
Duration : 29 min 7 s
Bit rate : 1 997 kb/s
Width : 1 280 pixels
Height : 720 pixels
Display aspect ratio : 16:9
Frame rate mode : Variable
Frame rate : 23.976 (24000/1001) FPS
Minimum frame rate : 23.974 FPS
Maximum frame rate : 23.981 FPS
Color space : YUV
Chroma subsampling : 4:2:0
Bit depth : 8 bits
Scan type : Progressive
Bits/(Pixel*Frame) : 0.090
Stream size : 416 MiB (91%)
Color range : Limited
Color primaries : BT.709
Transfer characteristics : BT.709
Matrix coefficients : BT.709
Codec configuration box : avcC

Audio
ID : 2
Format : AAC LC
Format/Info : Advanced Audio Codec Low Complexity
Codec ID : mp4a-40-2
Duration : 29 min 7 s
Bit rate mode : Variable
Bit rate : 192 kb/s
Maximum bit rate : 243 kb/s
Channel(s) : 2 channels
Channel layout : L R
Sampling rate : 48.0 kHz
Frame rate : 46.875 FPS (1024 SPF)
Compression mode : Lossy
Stream size : 39.8 MiB (9%)
Default : Yes
Alternate group : 1

Comments

Braden is not worth your time. Rather have a listen to Chris White, this page will download a *.mkv podcast file for you. Listen carefully before wasting time and hard disk space with the big big distraction Braden is:

https://ed.podomatic.net/e/nowheretorun.podomatic.com/2010-01-05T10_58_4...

thanks for posting. a few more details would have been helpful; descriptive metadata is your friend, especially when you want to retrieve something later on!

1. Nowhere To Run is a podcast about Christianity, Geopolitics, Philosophy, Bible Prophecy, and Evangelism, and more.
2. podcast doesn't start talking about Braden until 8 minutes in
3. actual podcast (which is audio from a video?) starts at 15 minutes
4. podcast appears to date from 2010 (in the filename)
5. podcast appears to try to debunk greg braden

I found it hard to follow. braden wins out just for ease of understanding. part of what makes braden successful is the fact that HE KNOWS HOW TO COMMUNICATE (whether or not he is right)

debunkers, take note!

He totally deconstructed global warming/climate change in a way I thought was intuitively very satisfying.