You are here

Tucker Carlson Originals s01s1-12

Primary tabs

SizeSeedsPeersCompleted
11.44 GiB300210
This torrent has no flags.


File Duration Resolution Video Format Audio Format
Tucker.Carlson.Originals.S01E01.Season.1.Overview.720p.WEB.h264-NCSWC.mkv 39m4s 1280x720 AVC AAC
Tucker.Carlson.Originals.S01E02.Chicago.in.Crisis.1080p.WEB.h264-NCSWC.mkv 23m11s 1920x1080 AVC AAC
Tucker.Carlson.Originals.S01E03.Green.Energy.Scams.Maine.1080p.WEB.h264-NCSWC.mkv 18m49s 1920x1080 AVC AAC
Tucker.Carlson.Originals.S01E04.AR-15.Under.Assault.1080p.WEB.h264-NCSWC.mkv 21m53s 1920x1080 AVC AAC
Tucker.Carlson.Originals.S01E05.Hunting.MS13.1080p.WEB.h264-NCSWC.mkv 25m10s 1920x1080 AVC AAC
Tucker.Carlson.Originals.S01E06.Surviving.Disorder.1080p.WEB.h264-NCSWC.mkv 23m42s 1920x1080 AVC AAC
Tucker.Carlson.Originals.S01E07.The.Illegal.Invasion.720p.WEB.h264-NCSWC.mkv 21m31s 1280x720 AVC AAC
Tucker.Carlson.Originals.S01E08.The.UFO.Files.1080p.WEB.h264-NCSWC.mkv 23m35s 1920x1080 AVC AAC
Tucker.Carlson.Originals.S01E09.Blown.Away.The.People.vs.Wind.Power.1080p.WEB.h264-NCSWC.mkv 25m58s 1920x1080 AVC AAC
Tucker.Carlson.Originals.S01E10.Patriot.Purge.Part.1.1080p.WEB.h264-NCSWC.mkv 26m45s 1920x1080 AVC AAC
Tucker.Carlson.Originals.S01E11.Patriot.Purge.Part.2.1080p.WEB.h264-NCSWC.mkv 23m11s 1920x1080 AVC AAC
Tucker.Carlson.Originals.S01E12.Patriot.Purge.Part.3.1080p.WEB.h264-NCSWC.mkv 20m15s 1920x1080 AVC AAC

Join Tucker Carlson and his team as their cameras take you inside the issues for a new documentary news magazine, ‘Tucker Carlson Originals’

  1. Season 1 Overview
    Tucker broadcasts a special first look event which previews Season One of Tucker Carlson Originals from the Fox Studios Lot in Los Angeles.

  2. Chicago in Crisis
    This jaw-dropping episode shows what happens when a George Soros-backed prosecutor allows Chicago’s lawlessness to unravel at an unprecedented rate. Tucker and his team take their cameras to the city and expose the truth about Chicago’s Kim Foxx.

  3. Green Energy Scams: Maine
    Tucker and his team investigate a corrupt 'green energy' plot that involves the destruction of the largest forest in the Eastern United States and how foreign corporations are set to get rich off the desecration of Maine's landscape.

  4. AR-15: Under Assault
    Tucker visits 'Hickok45' on his famous Tennessee range for a real-life AR-15 demonstration. Our team embeds with Texas ranchers protecting their cattle with the rifle. Plus: one man shows Tucker how he used the AR-15 to keep his family alive.

  5. Hunting MS13
    MS13 is invading America and the Biden administration is welcoming the gang with an open border and open arms. Tucker and his team hunt down this ruthless gang and sit down with El Salvador's president exclusively on this can't miss episode.

  6. Surviving Disorder
    In this shocking episode Tucker and his team profile Americans who have experienced anarchy on the home front, and risked everything to ensure the safety and security of themselves, their families, and their businesses.

  7. The Illegal Invasion
    Americans are powerless as illegal immigrants invade the U.S. southern border, and now one small Texas town is at the epicenter of the crisis. Tucker and his team go to Uvalde, Texas where neighbors can’t even water their gardens without packing heat.

  8. The UFO Files
    An alien invasion? Chinese or Russian super technology? Or just kooks with poor vision? What are all these unidentified flying objects invading our country? It’s more remarkable than you might think. Join Tucker Carlson as he searches for the truth.

  9. Blown Away: The People vs Wind Power
    Tucker and his team travel across America to get to the bottom of the wind energy scam. He exposes the hidden costs of the green energy agenda as we investigate the death and destruction brought on by these monstrosities.

  10. Patriot Purge: 1of3
    The domestic war on terror is here. Tucker explores how the Biden regime is using the Capitol riots on January sixth to paint Americans as terrorists. But what exactly happened on 1/6 and how much of what we're told was a lie?

  11. Patriot Purge: 2of3
    The Biden regime has launched one of the largest manhunts in history. Tucker and his team talk to patriots that kicked in the doors of terrorists that are now having their doors kicked in by the state they once served.

  12. Patriot Purge: 3of3
    Meet the political prisoners of the new 'War on Terror'. The accused of 1/6 have endured abuse and months of pretrial detention.

https://www.imdb.com/title/tt15660430/
https://www.thetvdb.com/series/tucker-carlson-originals
https://nation.foxnews.com/tucker-carlson-originals/

https://www.reddit.com/user/ConspiracyTorrents/posts/







Quote:

Video
ID : 1
Format : AVC
Format/Info : Advanced Video Codec
Format profile : High@L4.2
Format settings : CABAC / 4 Ref Frames
Format settings, CABAC : Yes
Format settings, Reference frames : 4 frames
Codec ID : V_MPEG4/ISO/AVC
Duration : 20 min 15 s
Bit rate : 6 000 kb/s
Width : 1 920 pixels
Height : 1 080 pixels
Display aspect ratio : 16:9
Frame rate mode : Constant
Frame rate : 23.976 (23976/1000) FPS
Color space : YUV
Chroma subsampling : 4:2:0
Bit depth : 8 bits
Scan type : Progressive
Bits/(Pixel*Frame) : 0.121
Stream size : 831 MiB (98%)
Writing library : x264 core 148 r2579M 73ae2d1
Encoding settings : cabac=1 / ref=2 / deblock=1:0:0 / analyse=0x3:0x113 / me=hex / subme=2 / psy=1 / psy_rd=1.00:0.00 / mixed_ref=0 / me_range=16 / chroma_me=1 / trellis=0 / 8x8dct=1 / cqm=0 / deadzone=21,11 / fast_pskip=1 / chroma_qp_offset=0 / threads=1 / lookahead_threads=1 / sliced_threads=0 / nr=250 / decimate=1 / interlaced=0 / bluray_compat=0 / stitchable=1 / constrained_intra=0 / bframes=3 / b_pyramid=2 / b_adapt=1 / b_bias=0 / direct=1 / weightb=1 / open_gop=0 / weightp=1 / keyint=122 / keyint_min=12 / scenecut=40 / intra_refresh=0 / rc_lookahead=10 / rc=2pass / mbtree=1 / bitrate=6000 / ratetol=1.0 / qcomp=0.60 / qpmin=5 / qpmax=69 / qpstep=4 / cplxblur=20.0 / qblur=0.5 / ip_ratio=1.40 / aq=1:1.00
Default : Yes
Forced : No
Color range : Limited
Color primaries : BT.709
Transfer characteristics : BT.709
Matrix coefficients : BT.709

Audio
ID : 2
Format : AAC LC SBR
Format/Info : Advanced Audio Codec Low Complexity with Spectral Band Replication
Commercial name : HE-AAC
Format settings : Implicit
Codec ID : A_AAC-2
Duration : 20 min 15 s
Bit rate : 127 kb/s
Channel(s) : 2 channels
Channel layout : L R
Sampling rate : 48.0 kHz
Frame rate : 23.438 FPS (2048 SPF)
Compression mode : Lossy
Stream size : 18.4 MiB (2%)
Language : English
Default : Yes
Forced : No