You are here

Transcendentalism: The Yogic Religion (2021)

Primary tabs

SizeSeedsPeersCompleted
4.04 GiB160314
This torrent has no flags.


The following are a series of excerpts from the Holy Hinduism Scripture of the Bhagavata Purana focusing on the philosophy and yogic practice of Transcendentalism – The knowledge through which one is awaken from the illusion and limitation of a material existence of endless birth and death, and with faith and devotion attains oneness in the blissful freedom of the everlasting unattached Living Spirit who is the causeless dreamer of an infinity of lives, worlds, and universes.

https://www.youtube.com/watch?v=bwvUQiQPH60

https://www.reddit.com/user/ConspiracyTorrents/posts/



Quote:

Video
ID : 1
Format : AVC
Format/Info : Advanced Video Codec
Format profile : High@L3.1
Format settings : CABAC / 3 Ref Frames
Format settings, CABAC : Yes
Format settings, Reference frames : 3 frames
Codec ID : V_MPEG4/ISO/AVC
Duration : 3 h 35 min
Bit rate : 2 000 kb/s
Width : 1 280 pixels
Height : 720 pixels
Display aspect ratio : 16:9
Frame rate mode : Constant
Frame rate : 23.976 (24000/1001) FPS
Color space : YUV
Chroma subsampling : 4:2:0
Bit depth : 8 bits
Scan type : Progressive
Bits/(Pixel*Frame) : 0.091
Stream size : 3.01 GiB (86%)
Default : Yes
Forced : No
Color range : Limited
Color primaries : BT.709
Transfer characteristics : BT.709
Matrix coefficients : BT.709

Audio
ID : 2
Format : AAC LC
Format/Info : Advanced Audio Codec Low Complexity
Codec ID : A_AAC-2
Duration : 3 h 35 min
Bit rate : 317 kb/s
Channel(s) : 2 channels
Channel layout : L R
Sampling rate : 48.0 kHz
Frame rate : 46.875 FPS (1024 SPF)
Compression mode : Lossy
Stream size : 489 MiB (14%)
Language : English
Default : Yes
Forced : No

Comments

If there is anyone out there who would like to no longer be a slave to his senses and be jedi instead - consider this your invitation from the Galactic Order of the Dolphin.

PS: Merry Christmas!

This looks really good, thanks for sharing.

Happy holidays.

ofcourse I'll watch the upload, but care to elaborate on what you just wrote??

I think I was pretty clear. If you dont understand what it means - the answer is in the torrent. :)

this a text in video format read by a robot voice. you can just read the book or listen to the audio no need download 3.5 GB of video file if you don't have the disk space or network traffic.

well content wise I'm not sure a run-of-the-mill person such as myself can actually make practical use of this.

thanks for the upload.

The practical use is in gaining awareness to overcome your animistic emotional reactions, and furthermore to find your own happiness through contemplation of the true reality instead of waiting for the material illusion in the senses to maybe give you happiness sometimes. And furthermore to take that awareness and self-control beyond death.