You are here

Transcendence: Live Life Beyond the Ordinary (2018)

Primary tabs

SizeSeedsPeersCompleted
7.94 GiB00358
This torrent has no flags.


What if you could have everything you ever imagined? What if the life of your dreams was already available?
Come on a journey to discover the secrets to living a happy and purposeful life. Learn from the world’s best on how you can achieve everything you’ve ever wanted, using what you already have.
Get the tools to transcend your limitations, unlock your personal power and achieve elevated states of consciousness to manifest the life you truly desire.

Season One: practical and approachable tools, to be able to shine light on our lives to help us step into our calling, follow our passions, and live the life of our dreams.

Season Two: understand how powerful your thoughts are, and how they can shape your life, your relationships, and the world around you.

https://www.gaia.com/series/transcendence

https://www.reddit.com/user/ConspiracyTorrents/posts/





Quote:

General
Complete name : Z:\Transcendence (2018)\Season 1 (2018) 720p GAIA x264\S01E02 - Overcoming Fear & Stress.mp4
Format : MPEG-4
Format profile : Base Media
Codec ID : isom (isom/iso2/avc1/mp41)
File size : 849 MiB
Duration : 54 min 11 s
Overall bit rate mode : Variable
Overall bit rate : 2 190 kb/s
Writing application : Lavf57.71.100

Video
ID : 1
Format : AVC
Format/Info : Advanced Video Codec
Format profile : Main@L3.1
Format settings : CABAC / 4 Ref Frames
Format settings, CABAC : Yes
Format settings, Reference frames : 4 frames
Codec ID : avc1
Codec ID/Info : Advanced Video Coding
Duration : 54 min 11 s
Bit rate : 1 992 kb/s
Width : 1 280 pixels
Height : 720 pixels
Display aspect ratio : 16:9
Frame rate mode : Variable
Frame rate : 23.976 (24000/1001) FPS
Minimum frame rate : 23.974 FPS
Maximum frame rate : 23.981 FPS
Color space : YUV
Chroma subsampling : 4:2:0
Bit depth : 8 bits
Scan type : Progressive
Bits/(Pixel*Frame) : 0.090
Stream size : 772 MiB (91%)
Color range : Limited
Color primaries : BT.709
Transfer characteristics : BT.709
Matrix coefficients : BT.709
Codec configuration box : avcC

Audio
ID : 2
Format : AAC LC
Format/Info : Advanced Audio Codec Low Complexity
Codec ID : mp4a-40-2
Duration : 54 min 11 s
Bit rate mode : Variable
Bit rate : 192 kb/s
Maximum bit rate : 213 kb/s
Channel(s) : 2 channels
Channel layout : L R
Sampling rate : 48.0 kHz
Frame rate : 46.875 FPS (1024 SPF)
Compression mode : Lossy
Stream size : 74.3 MiB (9%)
Default : Yes
Alternate group : 1