You are here

Rewired with Dr. Joe Dispenza (2019) Season 1

Primary tabs

SizeSeedsPeersCompleted
5.43 GiB80398
This torrent has no flags.


We are marvels of change! Dr. Joe Dispenza brings together his many years of research into the brain and human biology to present the latest findings on what is humanly possible for creating massive transformation in our lives. In fact, you have a supernatural ability to create a new future, in your own image. We are not hardwired to be a certain way for the rest of our lives, nor are we doomed by our genes.
Tune in to this epic series as Dr. Dispenza reveals the secret formulas for rewiring your brain and building coherence with your being, so that you can move from thinking to doing to being, as a new person in a new future that you have intentionally created.

https://www.gaia.com/series/rewired

https://www.reddit.com/user/ConspiracyTorrents/posts/






Quote:

Video
ID : 1
Format : AVC
Format/Info : Advanced Video Codec
Format profile : Main@L3.1
Format settings : CABAC / 4 Ref Frames
Format settings, CABAC : Yes
Format settings, Reference frames : 4 frames
Codec ID : avc1
Codec ID/Info : Advanced Video Coding
Duration : 26 min 36 s
Bit rate : 1 996 kb/s
Width : 1 280 pixels
Height : 720 pixels
Display aspect ratio : 16:9
Frame rate mode : Variable
Frame rate : 23.976 (24000/1001) FPS
Minimum frame rate : 23.974 FPS
Maximum frame rate : 23.981 FPS
Color space : YUV
Chroma subsampling : 4:2:0
Bit depth : 8 bits
Scan type : Progressive
Bits/(Pixel*Frame) : 0.090
Stream size : 380 MiB (91%)
Color range : Limited
Color primaries : BT.709
Transfer characteristics : BT.709
Matrix coefficients : BT.709
Codec configuration box : avcC

Audio
ID : 2
Format : AAC LC
Format/Info : Advanced Audio Codec Low Complexity
Codec ID : mp4a-40-2
Duration : 26 min 37 s
Bit rate mode : Variable
Bit rate : 192 kb/s
Maximum bit rate : 218 kb/s
Channel(s) : 2 channels
Channel layout : L R
Sampling rate : 48.0 kHz
Frame rate : 46.875 FPS (1024 SPF)
Compression mode : Lossy
Stream size : 36.5 MiB (9%)
Default : Yes
Alternate group : 1

Comments

Thank you!