You are here

A Quest for Ascension (2022)

Primary tabs

SizeSeedsPeersCompleted
930.01 MiB20380
This torrent has no flags.


Many people may feel they have no purpose in the world. If we return to ancient wisdom, we will rediscover some deep truths about who we really are, and the meaning of life. Which teachings and techniques can we use to reach higher levels of consciousness within ourselves and experience the divine? This documentary invites us to explore some important spiritual traditions: Primitive Christianity, Shamanism, Buddhism, Hinduism, Toltec wisdom, and others in order to show an essential truth shared by all teachings: everything is one.
Featuring: William Henry, Rahelio Rodriguez, David Lorimer, Betty J. Kovacs, Ravi Ravindra

https://www.gaia.com/video/a-quest-for-ascension

https://www.reddit.com/user/ConspiracyTorrents/posts/




Quote:

General
Complete name : Z:\A Quest for Ascension (2022) 720p GAIA x264\A Quest for Ascension (2022) 720p GAIA x264.mp4
Format : MPEG-4
Format profile : Base Media
Codec ID : isom (isom/iso2/avc1/mp41)
File size : 930 MiB
Duration : 59 min 13 s
Overall bit rate : 2 195 kb/s
Writing application : Lavf57.71.100

Video
ID : 1
Format : AVC
Format/Info : Advanced Video Codec
Format profile : Main@L3.1
Format settings : CABAC / 4 Ref Frames
Format settings, CABAC : Yes
Format settings, Reference frames : 4 frames
Codec ID : avc1
Codec ID/Info : Advanced Video Coding
Duration : 59 min 13 s
Bit rate : 1 997 kb/s
Width : 1 280 pixels
Height : 720 pixels
Display aspect ratio : 16:9
Frame rate mode : Variable
Frame rate : 23.976 (24000/1001) FPS
Minimum frame rate : 23.974 FPS
Maximum frame rate : 23.981 FPS
Color space : YUV
Chroma subsampling : 4:2:0
Bit depth : 8 bits
Scan type : Progressive
Bits/(Pixel*Frame) : 0.090
Stream size : 846 MiB (91%)
Color range : Limited
Color primaries : BT.709
Transfer characteristics : BT.709
Matrix coefficients : BT.709
Codec configuration box : avcC

Audio
ID : 2
Format : AAC LC
Format/Info : Advanced Audio Codec Low Complexity
Codec ID : mp4a-40-2
Duration : 59 min 13 s
Bit rate mode : Constant
Bit rate : 192 kb/s
Channel(s) : 2 channels
Channel layout : L R
Sampling rate : 48.0 kHz
Frame rate : 46.875 FPS (1024 SPF)
Compression mode : Lossy
Stream size : 81.2 MiB (9%)
Default : Yes
Alternate group : 1