You are here

Operation Gladio- U.S. Sponsored False Flag Terrorism -SecInc

Primary tabs

SizeSeedsPeersCompleted
1.12 GiB117
This torrent has no flags.


Operation Gladio

"Deception is a state of mind and the mind of the State"
James Jesus Angleton, Head of CIA Counter Intelligence 1954-1974

https://boltimg.com/images/aqSGP.jpg

Operation Gladio, an Observer Film Company production for BBC Television, was broadcast in June 1992 when Tiny Rowlands Lonrho owned the company. (Rowland was ejected from Lonrho in October 1993.) OFC became part of Guardian Newspapers Ltd when the Observer was acquired by the Guardian Media Group in June 1993, continuing to operate as the Observer Film Company until it was wound-up in December 1995

Originally aired on BBC2 in 1992, Operation Gladio reveals Gladio, the secret state-sponsored terror network operating in Europe.
https://boltimg.com/images/aq7ku.md.jpg
This BBC series is about a far-right secret army, operated by the CIA and MI6 through NATO, which killed hundreds of innocent Europeans and attempted to blame the deaths on Baader Meinhof, Red Brigades and other left wing groups. Known as stay-behinds these armies were given access to military equipment which was supposed to be used for sabotage after a Soviet invasion. Instead it was used in massacres across mainland Europe as part of a CIA Strategy of Tension. Gladio killing sprees in Belgium and Italy were carried out for the purpose of frightening the national political classes into adopting U.S. policies.

Britain s Stay Behind unit was modified after the war, for a secondary use. This was to combat the takeover of civil government by militant leftwing groups. The network was operated by Britain s intelligence services and selected members of the armed forces. Rumours persist that Harold Wilson s Labour government was the target of a Gladio type campaign not dissimilar to that of Italy. Wilson s surprise resignation has been credited to a dirty tricks campaign operated by British intelligence at the behest of the US. Known as operation Clockwork Orange Army psyops personnel began fabricating evidence that showed that senior members of the Wilson Cabinet, including the Prime Minister himself, were Soviet dupes. Waiting in the wings were senior military and other rightwing figures alleged to be planning a military style Coup D Etat in the event that the Labour government won the forthcoming election.

https://boltimg.com/images/aqmbe.gif

Format profile : Base Media / Version 2
Codec ID : mp42 (isom/iso2/avc1/mp41)
File size : 1.11 GiB
Duration : 2h 25mn
Overall bit rate mode : Variable
Overall bit rate : 1 094 Kbps
Encoded date : UTC 2016-12-09 07:46:28
Tagged date : UTC 2016-12-09 07:46:28
Writing application : HandBrake 0.10.5 2016021100

Video
ID : 1
Format : AVC
Format/Info : Advanced Video Codec
Format profile : Main@L4
Format settings, CABAC : Yes
Format settings, ReFrames : 4 frames
Codec ID : avc1
Codec ID/Info : Advanced Video Coding
Duration : 2h 25mn
Bit rate : 928 Kbps
Width : 1 124 pixels
Height : 720 pixels
Display aspect ratio : 16:10
Frame rate mode : Constant
Frame rate : 30.000 fps
Color space : YUV
Chroma subsampling : 4:2:0
Bit depth : 8 bits
Scan type : Progressive
Bits/(Pixel*Frame) : 0.038
Stream size : 967 MiB (85%)
Writing library : x264 core 142 r2479 dd79a61
Encoding settings : cabac=1 / ref=1 / deblock=1:0:0 / analyse=0x1:0x111 / me=hex / subme=2 / psy=1 / psy_rd=1.00:0.00 / mixed_ref=0 / me_range=16 / chroma_me=1 / trellis=0 / 8x8dct=0 / cqm=0 / deadzone=21,11 / fast_pskip=1 / chroma_qp_offset=0 / threads=3 / lookahead_threads=1 / sliced_threads=0 / nr=0 / decimate=1 / interlaced=0 / bluray_compat=0 / constrained_intra=0 / bframes=3 / b_pyramid=2 / b_adapt=1 / b_bias=0 / direct=1 / weightb=1 / open_gop=0 / weightp=1 / keyint=300 / keyint_min=30 / scenecut=40 / intra_refresh=0 / rc_lookahead=10 / rc=crf / mbtree=1 / crf=20.0 / qcomp=0.60 / qpmin=0 / qpmax=69 / qpstep=4 / vbv_maxrate=20000 / vbv_bufsize=25000 / crf_max=0.0 / nal_hrd=none / filler=0 / ip_ratio=1.40 / aq=1:1.00
Encoded date : UTC 2016-12-09 07:46:28
Tagged date : UTC 2016-12-09 07:46:28
Color range : Limited
Color primaries : BT.709
Transfer characteristics : BT.709
Matrix coefficients : BT.709

Audio
ID : 2
Format : AAC
Format/Info : Advanced Audio Codec
Format profile : LC
Codec ID : 40
Duration : 2h 25mn
Bit rate mode : Variable
Bit rate : 160 Kbps
Channel(s) : 2 channels
Channel positions : Front: L R
Sampling rate : 44.1 KHz
Frame rate : 43.066 fps (1024 spf)
Compression mode : Lossy
Stream size : 167 MiB (15%)
Title : Stereo / Stereo
Language : English
Default : Yes
Alternate group : 1
Encoded date : UTC 2016-12-09 07:46:28
Tagged date : UTC 2016-12-09 07:46:28

FCA46FF162195365F53E51AFC0BBA91E9B57107A