You are here

Limitless with Ben Stewart (2019)

Primary tabs

SizeSeedsPeersCompleted
4.75 GiB252211
This torrent has no flags.


You are about to embark upon a path that could unlock the deepest mysteries of your limitless human potential. In this revolutionary series, Ben Stewart pulls together research and practical applications from many fields ranging from science, spirituality, philosophy, nutrition and fitness to bring you real-world techniques that can help you transcend limited thinking and reach your full superhuman potential.

https://www.gaia.com/series/limitless

https://www.reddit.com/user/ConspiracyTorrents/posts/














Quote:

Video
ID : 1
Format : AVC
Format/Info : Advanced Video Codec
Format profile : Main@L3.1
Format settings : CABAC / 4 Ref Frames
Format settings, CABAC : Yes
Format settings, Reference frames : 4 frames
Codec ID : avc1
Codec ID/Info : Advanced Video Coding
Duration : 25 min 3 s
Bit rate : 1 996 kb/s
Width : 1 280 pixels
Height : 720 pixels
Display aspect ratio : 16:9
Frame rate mode : Variable
Frame rate : 23.976 (24000/1001) FPS
Minimum frame rate : 23.974 FPS
Maximum frame rate : 23.981 FPS
Color space : YUV
Chroma subsampling : 4:2:0
Bit depth : 8 bits
Scan type : Progressive
Bits/(Pixel*Frame) : 0.090
Stream size : 358 MiB (91%)
Color range : Limited
Color primaries : BT.709
Transfer characteristics : BT.709
Matrix coefficients : BT.709
Codec configuration box : avcC

Audio
ID : 2
Format : AAC LC
Format/Info : Advanced Audio Codec Low Complexity
Codec ID : mp4a-40-2
Duration : 25 min 3 s
Bit rate mode : Variable
Bit rate : 192 kb/s
Maximum bit rate : 216 kb/s
Channel(s) : 2 channels
Channel layout : L R
Sampling rate : 48.0 kHz
Frame rate : 46.875 FPS (1024 SPF)
Compression mode : Lossy
Stream size : 34.4 MiB (9%)
Default : Yes
Alternate group : 1