You are here

John Safran vs. God (2004)

Primary tabs

SizeSeedsPeersCompleted
1.42 GiB1056
This torrent has no flags.


SERIES NAME: John Safran vs. God (2004) GENERAL INFO: Format : AVI Format/Info : Audio Video Interleave File size : 188 MiB Duration : 25mn 24s Overall bit rate : 1 037 Kbps Writing application : MEncoder 1.0pre4-3.3.3 Writing library : VirtualDub build 24469/release VIDEO INFO: ID : 0 Format : MPEG-4 Visual Format profile : Advanced SimpleL5 Format settings, BVOP : 2 Format settings, QPel : No Format settings, GMC : No warppoints Format settings, Matrix : Default (H.263) Codec ID : XVID Codec ID/Hint : XviD Duration : 25 min Bit rate : 899 Kbps Width : 512 pixels Height : 288 pixels Display aspect ratio : 16:9 Frame rate : 25.000 fps Color space : YUV Chroma subsampling : 4:2:0 Bit depth : 8 bits Scan type : Progressive Compression mode : Lossy Bits/(Pixel*Frame) : 0.244 Stream size : 163 MiB (87%) Writing library : XviD 1.1.2 (UTC 2006-11-01) AUDIO INFO: ID : 1 Format : MPEG Audio Format version : Version 1 Format profile : Layer 3 Mode : Joint stereo Mode extension : MS Stereo Codec ID : 55 Codec ID/Hint : MP3 Duration : 25 min Bit rate mode : Constant Bit rate : 128 Kbps Channel(s) : 2 channels Sampling rate : 44.1 KHz Compression mode : Lossy Stream size : 23.2 MiB (12%) Alignment : Split accross interleaves Interleave, duration : 40 ms (1.00 video frame) Interleave, preload duration : 501 ms FILES LIST: John-Safran-vs-God_S01E01_Peyote-Way-Church-of-God.avi (188 MB) John-Safran-vs-God_S01E02_Japanese-Zen-Buddhists.avi (186 MB) John-Safran-vs-God_S01E03_Catholicism-Father-Bob-Style.avi (181 MB) John-Safran-vs-God_S01E04_Vodou-Day-of-the-Dead.avi (181 MB) John-Safran-vs-God_S01E05_The-Mormon-Door-Knockers.avi (193 MB) John-Safran-vs-God_S01E06_The-Harlem-Gospel-Choir.avi (183 MB) John-Safran-vs-God_S01E07_Mozambique-Witch-Doctor.avi (169 MB) John-Safran-vs-God_S01E08_The-Exorcist.avi (178 MB) IMDB LINK: https://www.imdb.com/title/tt0423675 HASH TAGS: documentary series, john safran, religion, catholic, mormon, vodou, witch doctor, exorcist, buddhist,

This is a reseed of an old ConCen release which is too precious to be lost in the sands of time. Please adopt this torrent and preserve our knowledge for future generations. And please comment below if you know the identity of the original poster and/or source so we can give them proper credit for their generosity.