You are here

I am Fishead (2011)

Primary tabs

SizeSeedsPeersCompleted
1.12 GiB30137
FlagCount
Essential content1

I am Fishead

How psychopaths and antidepressants influence our society

It is a well-known fact that our society is structured like a pyramid. The very few people at the top create conditions for the majority below. Who are these people? Can we blame them for the problems our society faces today? Guided by the saying "A fish rots from the head." we set out to follow that fishy odor. What we found out is that people at the top are more likely to be psychopaths than the rest of us.

Who, or what, is a psychopath? Unlike Hollywood's stereotypical image, they are not always blood-thirsty monsters from slasher movies. Actually, that nice lady who chatted you up on the subway this morning could be one. So could your elementary school teacher, your grinning boss, or even your loving boyfriend. The medical definition is simple: A psychopath is a person who lacks empathy and conscience, the quality which guides us when we choose between good and evil, moral or not. Most of us are conditioned to do good things. Psychopaths are not. Their impact on society is staggering, yet altogether psychopaths barely make up one percent of the population.

Broken into three parts, our search for the Fishead starts in New York City, on Wall Street, where a big chunk of the world power is concentrated. This small plot of city land is where the economic crisis erupted and what we found there has far-reaching consequences, both for the psychopaths and us normal folk.

The second part of the film touches on how, for a small number of people, overuse of antidepressants can result in behaviors that appear to mimic some psychopathic features. Although overuse of these medications will not produce psychopathy, they may stifle emotion and decrease the user's ability to feel empathy. They also may have the opposite effects, "normalizing" emotional experience and empathy. More than one-third of the Western population uses and, in some cases, abuses these drugs. But why? So why do we want to take a pill that flattens or normalizes our normal feelings? We think something sure smells fishy again

It is not too far fetched to say that for the first time in history we not only praise psychopaths in the highest positions of power, but in many cases, they became our role models. On top of that, we don't seem to think it's a problem. In the third part, we come back to the idea of us, the normal people in our day-to-day life. How much different are we from the average psychopath? By embracing a superficial culture, each of us maybe unwillingly supports the Fishead. Albert Einstein said, "The world is a dangerous place to live; not because of the people who are evil, but because of the people who don't do anything about it."

Through interviews with renowned psychologist Professor Philip Zimbardo, leading expert on psychopathy Professor Robert Hare, former President of Czech Republic and playwright Vaclav Havel, authors Gary Greenberg and Christopher Lane, professor Nicholas Christakis, among numerous other thinkers, we have delved into the world of psychopaths and heroes and revealed shocking implications for us and our society.

GENERAL
Title : I Am Fishead
Narrated by : Peter Coyote
Released : Sep 11 2011
Website : www.FHmovie.com
Format : MPEG-4
File size : 1.12 GiB
Duration : 1h 18mn

VIDEO
Format : AVC
Bit rate : 1,926 Kbps
Width : 1280 pixels
Height : 720 pixels
Display aspect ratio : 16:9
Frame rate mode : Constant
Frame rate : 25.000 fps
Stream size : 1.05 GiB 93%

AUDIO
Format : AAC
Bit rate mode : Constant
Bit rate : 128 Kbps
Channels : 2 channels
Sampling rate : 44.1 KHz
Stream size : 71.4 MiB 6%
Language : English

WHAT'S WRONG WITH OUR WORLD? THIS IS A FILM FOR PEOPLE WHO WANT TO KNOW.

Critical content.

Comments

...because it is compulsory viewing for every person who seeks to understand the dark forces that control the highest levels of our corporate/financial world. And because this is the only very high resolution original copy of this documentary which has been in circulation since the initial warez scene mid-res copy xvid which was released in 2011. The doco has only been available for the last 5-ish years in crappy quality 360p re-re-reencoded youtube version.

Please seed seed seed, archive somewhere safe, and also share it around any other torrent sites you belong to. Long live ConCen!!!!!