You are here

Flower of Life with Drunvalo Melchizedek (2016)

Primary tabs

SizeSeedsPeersCompleted
15.14 GiB00520
This torrent has no flags.


Crack open the vaults of Drunvalo Melchizedek’s classic programming and experience the original five-day Flower of Life workshop. This was one of the last workshops he taught himself before he handed the teachings over to specially trained facilitators.
Aside from some minor edits and updating the openings, we present this material in its original condition, as it is given on the collection of 21 DVDs.
This is your opportunity, here on Gaia, to see and hear Drunvalo explain multifaceted subjects, stemming from Sacred Geometry, which weave an understanding of the universe and human consciousness.
This is a life-changing experience and a rare opportunity to learn from a true master.

https://www.gaia.com/series/flower-life

https://www.reddit.com/user/ConspiracyTorrents/posts/






Quote:

General
Complete name : Z:\Flower of Life with Drunvalo Melchizedek (2016)\Season 1 (2016) 360p GAIA x264\S01E01 - Introduction to Drunvalo Melchizedek.mp4
Format : MPEG-4
Format profile : Base Media
Codec ID : isom (isom/iso2/avc1/mp41)
File size : 800 MiB
Duration : 1 h 42 min
Overall bit rate mode : Variable
Overall bit rate : 1 092 kb/s
Writing application : Lavf57.71.100

Video
ID : 1
Format : AVC
Format/Info : Advanced Video Codec
Format profile : Main@L2.2
Format settings : CABAC / 4 Ref Frames
Format settings, CABAC : Yes
Format settings, Reference frames : 4 frames
Codec ID : avc1
Codec ID/Info : Advanced Video Coding
Duration : 1 h 42 min
Bit rate : 894 kb/s
Width : 490 pixels
Height : 360 pixels
Display aspect ratio : 4:3
Frame rate mode : Constant
Frame rate : 29.970 (30000/1001) FPS
Color space : YUV
Chroma subsampling : 4:2:0
Bit depth : 8 bits
Scan type : Progressive
Bits/(Pixel*Frame) : 0.169
Stream size : 655 MiB (82%)
Color range : Limited
Color primaries : BT.601 NTSC
Transfer characteristics : BT.601
Matrix coefficients : BT.601
Codec configuration box : avcC

Audio
ID : 2
Format : AAC LC
Format/Info : Advanced Audio Codec Low Complexity
Codec ID : mp4a-40-2
Duration : 1 h 42 min
Bit rate mode : Variable
Bit rate : 192 kb/s
Maximum bit rate : 195 kb/s
Channel(s) : 2 channels
Channel layout : L R
Sampling rate : 48.0 kHz
Frame rate : 46.875 FPS (1024 SPF)
Compression mode : Lossy
Stream size : 139 MiB (17%)
Default : Yes
Alternate group : 1