You are here

Earth Signs from Above (2016)

Primary tabs

SizeSeedsPeersCompleted
3.08 GiB21314
This torrent has no flags.


From the ground, we see almost nothing. Without noticing the significant and mysterious traces that lie at our feet, we walk on, around, are in the center of, or are next to them. Going higher, we begin to distinguish shapes, designs and structures. Finally, these giant traces take shape when seen from the sky.
Are they mystical or extraterrestrial signs? Ancient geological events? Marks due to weather conditions? Simple works of art or hoaxes? This series, Earth Signs from Above, offers an inventory of these strange manifestations, and an investigation that excludes no hypothesis — be it scientific, mystical or social.
Throughout 4 episodes we contemplate these enigmatic marks as they should be seen: from the sky, with spectacular footage taken for the first time with the help of camera drones.

https://www.gaia.com/series/earth-signs-above

https://www.reddit.com/user/ConspiracyTorrents/posts/







Quote:

General
Complete name : Z:\Earth Signs from Above (2016)\Season 1 (2016) 720p GAIA x264\S01E01 - Crop Circles - A Modern Mystery.mp4
Format : MPEG-4
Format profile : Base Media
Codec ID : isom (isom/iso2/avc1/mp41)
Name: Downloaded from https://www.reddit.com/user/ConspiracyTorrents/posts/
File size : 794 MiB
Duration : 50 min 39 s
Overall bit rate : 2 191 kb/s
Writing application : Lavf57.71.100

Video
ID : 1
Format : AVC
Format/Info : Advanced Video Codec
Format profile : Main@L3.1
Format settings : CABAC / 4 Ref Frames
Format settings, CABAC : Yes
Format settings, Reference frames : 4 frames
Codec ID : avc1
Codec ID/Info : Advanced Video Coding
Duration : 50 min 39 s
Bit rate : 1 993 kb/s
Width : 1 280 pixels
Height : 720 pixels
Display aspect ratio : 16:9
Frame rate mode : Variable
Frame rate : 23.976 (24000/1001) FPS
Minimum frame rate : 23.974 FPS
Maximum frame rate : 23.981 FPS
Color space : YUV
Chroma subsampling : 4:2:0
Bit depth : 8 bits
Scan type : Progressive
Bits/(Pixel*Frame) : 0.090
Stream size : 722 MiB (91%)
Codec configuration box : avcC

Audio
ID : 2
Format : AAC LC
Format/Info : Advanced Audio Codec Low Complexity
Codec ID : mp4a-40-2
Duration : 50 min 39 s
Bit rate mode : Constant
Bit rate : 192 kb/s
Channel(s) : 2 channels
Channel layout : L R
Sampling rate : 48.0 kHz
Frame rate : 46.875 FPS (1024 SPF)
Compression mode : Lossy
Stream size : 69.5 MiB (9%)
Default : Yes
Alternate group : 1