You are here

Cowspiracy - The Sustainability Secret (2014) 1080p MP4

Primary tabs

SizeSeedsPeersCompleted
2.81 GiB2833718
FlagCount
Thanks given1

Cowspiracy - The Sustainability Secret (2014) 1080p MP4

The World's largest environmental organizations are failing to address the single most destructive force facing the planet today. Follow the shocking, yet humorous, journey of an aspiring environmentalist, as he daringly seeks to find the real solution to the most pressing environmental issues and true path to sustainability.

General
Complete name: Cowspiracy: The Sustainability Secret.mp4
Format: MPEG-4
Format profile: Base Media
Codec ID: isom
File size: 2.81 GiB
Duration: 1h 30mn
Overall bit rate: 4 425 Kbps
Encoded date: UTC 2014-07-03 23:19:35
Tagged date: UTC 2014-07-03 23:19:35
Language: English

Video
ID: 1
Format: AVC
Format/Info: Advanced Video Codec
Format profile: High@L4.0
Format settings, CABAC: Yes
Format settings, ReFrames: 4 frames
Codec ID: avc1
Codec ID/Info: Advanced Video Coding
Duration: 1h 30mn
Bit rate mode: Variable
Bit rate: 4 320 Kbps
Maximum bit rate: 23.8 Mbps
Width: 1 920 pixels
Height: 1 080 pixels
Display aspect ratio: 16:9
Frame rate mode: Constant
Frame rate: 23.976 fps
Color space: YUV
Chroma subsampling: 4:2:0
Bit depth: 8 bits
Scan type: Progressive
Bits/(Pixel*Frame): 0.087
Stream size: 2.74 GiB (98%)
Writing library: Zencoder Video Encoding System
Encoded date: UTC 2014-07-03 22:09:46
Tagged date: UTC 2014-07-03 23:19:39

Audio
ID: 2
Format AAC
Format/Info: Advanced Audio Codec
Format version: Version 4
Format profile: LC
Format settings, SBR: No
Codec ID: 40
Duration: 1h 30mn
Bit rate mode: Variable
Bit rate: 102 Kbps
Maximum bit rate: 150 Kbps
Channel(s): 2 channels
Channel positions: Front: L R
Sampling rate: 48.0 KHz
Stream size: 66.3 MiB (2%)
Encoded date: UTC 2014-07-03 23:19:38
Tagged date: UTC 2014-07-03 23:19:39

Screens: