You are here

The Awful Truth (1999)

Primary tabs

SizeSeedsPeersCompleted
7.02 GiB1058
This torrent has no flags.


SERIES NAME: Michael Moore's The Awful Truth (1999) GENERAL INFO: Format : AVI Format/Info : Audio Video Interleave File size : 299 MiB Duration : 23mn 27s Overall bit rate : 1 779 Kbps Writing application : Nandub v1.0rc2 Writing library : Nandub build 1852/release VIDEO INFO: ID : 0 Format : MPEG-4 Visual Format settings, BVOP : 1 Format settings, QPel : No Format settings, GMC : 2 warppoints Format settings, Matrix : Default (H.263) Muxing mode : Packed bitstream Codec ID : DX50 Codec ID/Hint : DivX 5 Duration : 23mn 27s Bit rate : 1 580 Kbps Width : 576 pixels Height : 432 pixels Display aspect ratio : 4:3 Frame rate : 23.976 fps Color space : YUV Chroma subsampling : 4:2:0 Bit depth : 8 bits Scan type : Progressive Compression mode : Lossy Bits/(Pixel*Frame) : 0.265 Stream size : 265 MiB (89%) Writing library : DivX 5.0.2 (UTC 2002-05-16) AUDIO INFO: ID : 1 Format : AC-3 Format/Info : Audio Coding 3 Mode extension : CM (complete main) Format settings, Endianness : Big Codec ID : 2000 Duration : 23mn 27s Bit rate mode : Constant Bit rate : 192 Kbps Channel(s) : 2 channels Channel positions : Front: L R Sampling rate : 48.0 KHz Compression mode : Lossy Stream size : 32.2 MiB (11%) Alignment : Split accross interleaves Interleave, duration : 83 ms (2.00 video frames) Interleave, preload duration : 500 ms FILES LIST: The-Awful-Truth_S01E01_Cheaper-Witch-Hunt_Funeral-at-an-HMO.avi (300 MB) The-Awful-Truth_S01E02_Beat-the-Rich_The-Sodomobile.avi (300 MB) The-Awful-Truth_S01E03_Crackers-vs-Mickey-Mouse_Voice-Box-Choir.avi (300 MB) The-Awful-Truth_S01E04_Sal-The-Bill-Collector_Duck-and-Cover.avi (300 MB) The-Awful-Truth_S01E05_Man-of-the-Year_TV-Pundits.avi (300 MB) The-Awful-Truth_S01E06_Work-Care_Drop-TVs-on-Afghanistan.avi (300 MB) The-Awful-Truth_S01E07_William-Cohen_LucyCam_Manpower.avi (300 MB) The-Awful-Truth_S01E08_Montana-Shacks_Joe-Camel-Gets-a-Job.avi (300 MB) The-Awful-Truth_S01E09_Turdonia_Teen-Sniper_Hitler-Goes-Banking.avi (300 MB) The-Awful-Truth_S01E10_American-Apartheid_Bill-Gates-Housewarming.avi (299 MB) The-Awful-Truth_S01E11_Weapon-Inspectors_Find-Hillary-a-Date.avi (300 MB) The-Awful-Truth_S01E12_NAFTA-Mike_Strikebreakers_Mergers.avi (300 MB) The-Awful-Truth_S02E01_Advertiser-Appreciation-Night.avi (298 MB) The-Awful-Truth_S02E02_Compassionate-Conservative-Night.avi (298 MB) The-Awful-Truth_S02E03_Help-the-Dead-Guy.avi (298 MB) The-Awful-Truth_S02E04_German-Vacation-Night.avi (298 MB) The-Awful-Truth_S02E05_Ficus-for-Congress.avi (298 MB) The-Awful-Truth_S02E06_Taxi-Driver.avi (299 MB) The-Awful-Truth_S02E07_Dixie-Flag-Night.avi (298 MB) The-Awful-Truth_S02E08_Stop-and-Frisk-Night.avi (298 MB) The-Awful-Truth_S02E09_Replacement-Mike.avi (299 MB) The-Awful-Truth_S02E10_Store-the-Homeless.avi (297 MB) The-Awful-Truth_S02E11_Gulf-War.avi (298 MB) The-Awful-Truth_S02E12_Find-Clinton-a-Job.avi (298 MB) IMDB LINK: https://www.imdb.com/title/tt0190171 HASH TAGS: documentary series, Michael Moore, Bill Gates, The Clintons, wealthy elite, corporate corruption, compassionate conservative, political activism, black comedy, satire,


.
Activist film director Michael Moore hosts a show where he continues his crusade to expose wrongdoing by the high and mighty.
_______________________________
This is a reseed of an old ConCen release which is too precious to be lost in the sands of time. Please adopt this torrent and preserve our knowledge for future generations. And please comment below if you know the identity of the original poster and/or source so we can give them proper credit for their generosity.