You are here

Ariel Phenomenon (2022) [x264]

Primary tabs

SizeSeedsPeersCompleted
2.16 GiB110372
This torrent has no flags.


In this first feature documentary about the Ariel School UFO incident, Ariel Phenomenon explores an African extraterrestrial encounter witnessed by over sixty schoolchildren in 1994. As a Harvard professor, a BBC war reporter, and past students investigate, they struggle to answer the question: "What happens when you experience something so extraordinary that nobody believes you?"

https://www.reddit.com/user/ConspiracyTorrents/posts/





Quote:

General
Unique ID : 236903983791303754288575887221675058228 (0xB23A0C31AA472DD7CE8A6C3AA960E434)
Complete name : Z:\Ariel Phenomenon (2022) 1080p WEB-DL x264 An0mal1\Ariel Phenomenon (2022) 1080p WEB-DL x264 An0mal1.mkv
Format : Matroska
Format version : Version 4
File size : 2.16 GiB
Duration : 1 h 39 min
Overall bit rate : 3 102 kb/s
Movie name : Downloaded from https://www.reddit.com/user/ConspiracyTorrents/posts/
Encoded date : UTC 2022-05-27 22:42:39
Writing application : mkvmerge v65.0.0 ('Too Much') 64-bit
Writing library : libebml v1.4.2 + libmatroska v1.6.4

Video
ID : 1
Format : VP9
Codec ID : V_VP9
Duration : 1 h 39 min
Bit rate : 2 980 kb/s
Width : 1 920 pixels
Height : 1 080 pixels
Display aspect ratio : 16:9
Frame rate mode : Constant
Frame rate : 23.976 (24000/1001) FPS
Bits/(Pixel*Frame) : 0.060
Stream size : 2.07 GiB (96%)
Language : English
Default : Yes
Forced : No

Audio
ID : 2
Format : Opus
Codec ID : A_OPUS
Duration : 1 h 39 min
Bit rate : 120 kb/s
Channel(s) : 2 channels
Channel layout : L R
Sampling rate : 48.0 kHz
Frame rate : 25.000 FPS (1920 SPF)
Compression mode : Lossy
Stream size : 85.6 MiB (4%)
Language : English
Default : Yes
Forced : No