You are here

Ancient Advanced Technology (2014)

Primary tabs

SizeSeedsPeersCompleted
10.1 GiB001181
This torrent has no flags.


Join David Hatcher Childress as he investigates ancient advanced technology. Travel with him to Egypt, Peru and Bolivia, Central America, Mexico and the American Southwest, and Nazca and Central Peru in search of high technology in our ancient past. A production of UFOTV Presents.

https://www.gaia.com/series/ancient-advanced-technology

https://www.reddit.com/user/ConspiracyTorrents/posts/







Quote:

General
Complete name : D:\-=GAIA\Ancient Advanced Technology with David Hatcher Childress (2014)\Season 1 (2014) 480p GAIA x264\S01E01 - Ancient Advanced Technology in Egypt.mp4
Format : MPEG-4
Format profile : Base Media
Codec ID : isom (isom/iso2/avc1/mp41)
File size : 2.37 GiB
Duration : 1 h 31 min
Overall bit rate mode : Variable
Overall bit rate : 3 701 kb/s
Writing application : Lavf57.71.100

Video
ID : 1
Format : AVC
Format/Info : Advanced Video Codec
Format profile : High@L3
Format settings : CABAC / 4 Ref Frames
Format settings, CABAC : Yes
Format settings, Reference frames : 4 frames
Codec ID : avc1
Codec ID/Info : Advanced Video Coding
Duration : 1 h 31 min
Bit rate : 3 502 kb/s
Width : 640 pixels
Height : 480 pixels
Display aspect ratio : 4:3
Frame rate mode : Constant
Frame rate : 29.970 (30000/1001) FPS
Color space : YUV
Chroma subsampling : 4:2:0
Bit depth : 8 bits
Scan type : Progressive
Bits/(Pixel*Frame) : 0.380
Stream size : 2.24 GiB (95%)
Color range : Limited
Color primaries : BT.601 NTSC
Transfer characteristics : BT.709
Matrix coefficients : BT.601
Codec configuration box : avcC

Audio
ID : 2
Format : AAC LC
Format/Info : Advanced Audio Codec Low Complexity
Codec ID : mp4a-40-2
Duration : 1 h 31 min
Bit rate mode : Variable
Bit rate : 192 kb/s
Maximum bit rate : 208 kb/s
Channel(s) : 2 channels
Channel layout : L R
Sampling rate : 48.0 kHz
Frame rate : 46.875 FPS (1024 SPF)
Compression mode : Lossy
Stream size : 125 MiB (5%)
Default : Yes
Alternate group : 1