You are here

Accidental Truth: UFO Revelations (2023)

Primary tabs

SizeSeedsPeersCompleted
1.36 GiB170524
FlagCount
Thanks given1

The truth can no longer be contained by those duty-bound to hide it. Officials who interact with the public regarding the UFO question openly acknowledge that they know things that they can't reveal. In ACCIDENTAL TRUTH - UFO REVELATIONS, the reality of an advanced intelligence engaging with humanity becomes undeniably clear.

https://www.imdb.com/title/tt26443953/

https://www.reddit.com/user/ConspiracyTorrents/posts/



Quote:

General
Unique ID : 202706803362269455678715077152138049746 (0x987FE906512C2D9E9955B72A9667B8D2)
Complete name : D:\Accidental Truth - UFO Revelations (2023) 1080p AMZN WEBRip x265 - An0mal1\Accidental Truth - UFO Revelations (2023) 1080p AMZN WEBRip x265 - An0mal1.mkv
Format : Matroska
Format version : Version 4
File size : 1.36 GiB
Duration : 1 h 29 min
Overall bit rate : 2 173 kb/s
Movie name : Downloaded from https://www.reddit.com/user/ConspiracyTorrents/posts/
Encoded date : UTC 2023-04-26 06:27:55
Writing application : mkvmerge v67.0.0 ('Under Stars') 64-bit
Writing library : libebml v1.4.2 + libmatroska v1.6.4

Video
ID : 1
Format : HEVC
Format/Info : High Efficiency Video Coding
Format profile : Main 10@L4@Main
Codec ID : V_MPEGH/ISO/HEVC
Duration : 1 h 29 min
Bit rate : 1 947 kb/s
Width : 1 920 pixels
Height : 1 080 pixels
Display aspect ratio : 16:9
Frame rate mode : Constant
Frame rate : 29.970 (30000/1001) FPS
Color space : YUV
Chroma subsampling : 4:2:0
Bit depth : 10 bits
Bits/(Pixel*Frame) : 0.031
Stream size : 1.21 GiB (90%)
Writing library : x265 3.5+37+12-4e46995bc:[Windows][MSVC 1931][64 bit] 10bit
Encoding settings : cpuid=1111039 / frame-threads=4 / numa-pools=16 / wpp / no-pmode / no-pme / no-psnr / no-ssim / log-level=2 / input-csp=1 / input-res=1920x1080 / interlace=0 / total-frames=160574 / level-idc=0 / high-tier=1 / uhd-bd=0 / ref=4 / no-allow-non-conformance / no-repeat-headers / annexb / no-aud / no-eob / no-eos / no-hrd / info / hash=0 / no-temporal-layers / open-gop / min-keyint=25 / keyint=250 / gop-lookahead=0 / bframes=8 / b-adapt=2 / b-pyramid / bframe-bias=0 / rc-lookahead=25 / lookahead-slices=4 / scenecut=40 / no-hist-scenecut / radl=0 / no-splice / no-intra-refresh / ctu=64 / min-cu-size=8 / rect / no-amp / max-tu-size=32 / tu-inter-depth=1 / tu-intra-depth=1 / limit-tu=0 / rdoq-level=2 / dynamic-rd=0.00 / no-ssim-rd / signhide / no-tskip / nr-intra=0 / nr-inter=0 / no-constrained-intra / strong-intra-smoothing / max-merge=3 / limit-refs=3 / limit-modes / me=3 / subme=3 / merange=57 / temporal-mvp / no-frame-dup / no-hme / weightp / no-weightb / no-analyze-src-pics / deblock=-3:-3 / no-sao / no-sao-non-deblock / rd=4 / selective-sao=0 / no-early-skip / rskip / no-fast-intra / no-tskip-fast / no-cu-lossless / no-b-intra / no-splitrd-skip / rdpenalty=0 / psy-rd=2.00 / psy-rdoq=1.00 / no-rd-refine / no-lossless / cbqpoffs=0 / crqpoffs=0 / rc=abr / bitrate=2000 / qcomp=0.60 / qpstep=4 / stats-write=0 / stats-read=0 / ipratio=1.40 / pbratio=1.30 / aq-mode=5 / aq-strength=1.00 / aq-bias-strength=1.00 / cutree / zone-count=0 / no-strict-cbr / qg-size=32 / no-rc-grain / qpmax=69 / qpmin=0 / no-const-vbv / sar=0 / overscan=0 / videoformat=5 / range=0 / colorprim=1 / transfer=1 / colormatrix=1 / chromaloc=0 / display-window=0 / cll=0,0 / min-luma=0 / max-luma=1023 / log2-max-poc-lsb=8 / vui-timing-info / vui-hrd-info / slices=1 / no-opt-qp-pps / no-opt-ref-list-length-pps / no-multi-pass-opt-rps / scenecut-bias=0.05 / hist-threshold=0.03 / no-opt-cu-delta-qp / no-aq-motion / no-hdr10 / no-hdr10-opt / no-dhdr10-opt / no-idr-recovery-sei / analysis-reuse-level=0 / analysis-save-reuse-level=0 / analysis-load-reuse-level=0 / scale-factor=0 / refine-intra=0 / refine-inter=0 / refine-mv=1 / refine-ctu-distortion=0 / no-limit-sao / ctu-info=0 / no-lowpass-dct / refine-analysis-type=0 / copy-pic=1 / max-ausize-factor=1.0 / no-dynamic-refine / no-single-sei / no-hevc-aq / no-svt / no-field / qp-adaptation-range=1.00 / scenecut-aware-qp=0conformance-window-offsets / right=0 / bottom=0 / decoder-max-rate=0 / no-vbv-live-multi-pass
Default : Yes
Forced : No
Color range : Limited
Color primaries : BT.709
Transfer characteristics : BT.709
Matrix coefficients : BT.709

Audio
ID : 2
Format : E-AC-3
Format/Info : Enhanced AC-3
Commercial name : Dolby Digital Plus
Codec ID : A_EAC3
Duration : 1 h 29 min
Bit rate mode : Constant
Bit rate : 224 kb/s
Channel(s) : 2 channels
Channel layout : L R
Sampling rate : 48.0 kHz
Frame rate : 31.250 FPS (1536 SPF)
Bit depth : 32 bits
Compression mode : Lossy
Stream size : 143 MiB (10%)
Language : English
Service kind : Complete Main
Default : Yes
Forced : No

Text
ID : 3
Format : UTF-8
Codec ID : S_TEXT/UTF8
Codec ID/Info : UTF-8 Plain Text
Duration : 1 h 28 min
Bit rate : 116 b/s
Count of elements : 1705
Stream size : 75.0 KiB (0%)
Language : English
Default : No
Forced : No

Comments

I think Dr. Michio Kaku may be the only mainstream scientist to openly accept the reality of UFOs.

so believing in aliens as a grown adult makes you a dumb ass retard. when i was growing up in the 70s if you believed in aliens you were called dumb, silly, short bus. now mass media has convinced grown adults that little green men exist. if you believe in "space aliens" i hope they come probe your anus.............peace out retarded idiots

dudeface wrote:

so believing in aliens as a grown adult makes you a dumb ass retard. when i was growing up in the 70s if you believed in aliens you were called dumb, silly, short bus. now mass media has convinced grown adults that little green men exist. if you believe in "space aliens" i hope they come probe your anus.............peace out retarded idiots

copying and pasting the same response over 3 threads is intelectually VACANT and shows you have absolutely nothing flat earth muppet

i thought i would take time out of my day to spam others posts on how stupid they are to have a different beLIEf than me. IT literally took 3 minutes for you to see my comment and insult me as per usual. WHOS VACUNT?? or a paid shill/dis info??............ seems when the tables are turned its ok to be a low life dickweed though. TRUTH HURTS............PEACE OUT

dudeface wrote:

i thought i would take time out of my day to spam others posts on how stupid they are to have a different beLIEf than me. IT literally took 3 minutes for you to see my comment and insult me as per usual. WHOS VACUNT?? or a paid shill/dis info??............ seems when the tables are turned its ok to be a low life dickweed though. TRUTH HURTS............PEACE OUT

if all you are going to do is copy/paste the same response to all threads then that's just spamming. playing the victim and hypocrisy blended with asshattery.. that's you to a "T".
you're very child-like really

You are the type of idiot I spent time on a decade back on sites like these over idiotic statements such as this.

People like you are the same slow character types who constantly hate Alex Jones - err, "cos his wife have jewish links innit".

Whether Jones or the UFO issue - it's sad you can only handle one avenue in your mind to process things... the fact you reduce either issue to one linear outcome tells us more about your mind and consciousness as a human being than it does about anything to do with [yawwn] - "shills" or "disinfo" - your post sounds like an out-take of:
"Beavis and Butthead Do Conspiracy Stuph"....
Uhmm - errr - aheheheh... aheheheh...
;-)
=

... after child porn was found in his cellphone.
I remember when some subject has ties with Isis Ha El he used to throw the shit in the fan is necessary.
Nowadays, Zionism is a forbidden topic.

ttsoares wrote:

Nowadays, Zionism is a forbidden topic.

not here it's not!

This guy, Ron James, was interviewed (and praised) by Richard Dolan:

Erasing UFO History for the New Narrative | The Richard Dolan Show w/Ron James
https://www.youtube.com/watch?v=e5Xh2CRAr5s