You are here

government corruption

The Israel Lobby and U.S. Foreign Policy (2007) [audiobook+ebook]

SizeSeedsPeersCompleted
550.8 MiB1076
This torrent has no flags.


.

The Israel Lobby, by John J. Mearsheimer of the University of Chicago and Stephen M. Walt of Harvard's John F. Kennedy School of Government, was one of the most controversial articles in recent memory. Originally published in the London Review of Books in March 2006, it provoked both howls of outrage and cheers of gratitude for challenging what had been a taboo issue in America: the impact of the Israel lobby on U.S. foreign policy.

Bad Money: Reckless Finance, Failed Politics, and the Global Crisis of American Capitalism (2008) [audiobook+ebook]

SizeSeedsPeersCompleted
191.53 MiB20108
This torrent has no flags.



.
Released in April 2008, a full 6 months before the staggering events of October, when the arch criminals of Wall Street held the U.S. government for ransom, threatening to crash the global economy if they weren't given trillions in bailout money, Bad Money lays out exactly who created the "crisis" for their own benefit, and why they needed to. The level of prescience in this book is stunning.

CBC The Fifth Estate: Gambling on Addiction; The Carbones' Bad Gamble (2017)

SizeSeedsPeersCompleted
397.15 MiB1048
This torrent has no flags.



.
Duration: 45m8s
Resolution: 852x480
Video Format: AVC
Audio Format: AAC

Surviving Justice: America’s Wrongfully Convicted and Exonerated (2017)

SizeSeedsPeersCompleted
1.47 MiB1099
This torrent has no flags.



.
Edited by Dave Eggers and Lola Vollen with a Foreword by Scott Turow

Maxed Out: Hard Times, Easy Credit & the Era of Predatory Lenders (2006)

SizeSeedsPeersCompleted
497.77 MiB1030
This torrent has no flags.


General Complete name: Maxed Out - Hard Times Easy Credit and the Era of Predatory Lenders.2006.avi Format: AVI Format/Info: Audio Video Interleave File size: 498 MiB Duration: 1h 26mn Overall bit rate: 800 Kbps Writing application: transcode-1.1.7 Video Format: MPEG-4 Visual Format profile: Advanced Simple@L5 Format settings, BVOP: 1 Format settings, QPel: No Format settings, GMC: No warppoints Format settings, Matrix: Default (H.263) Codec ID: XVID Codec ID/Hint: XviD Duration: 1h 26mn Bit rate: 660 Kbps Width: 640 pixels Height: 352 pixels Display aspect ratio: 16:9 Frame rate: 29.970 fps Color space: YUV Chroma subsampling: 4:2:0 Bit depth: 8 bits Scan type: Progressive Compression mode: Lossy Bits/(Pixel*Frame): 0.098 Stream size: 411 MiB (83%) Writing library: XviD 64 Audio Format: MPEG Audio Format version: Version 1 Format profile: Layer 3 Mode: Joint stereo Mode extension: MS Stereo Codec ID: 55 Codec ID/Hint: MP3 Duration: 1h 26mn Bit rate mode: Constant Bit rate: 128 Kbps Channel(s): 2 channels Sampling rate: 48.0 KHz Compression mode: Lossy Stream size: 79.6 MiB (16%) Alignment: Split accross interleaves Interleave, duration: 33 ms (1.00 video frame) Writing library: LAME3.99.5

Maxed Out: Hard Times, Easy Credit & the Era of Predatory Lenders (2006)

This is a great film to watch, especially now in 2014. It names all the big banks and how they lured people into easy credit, years before the crash of 2008. We now know these crooks engineered the whole thing so they would profit at every stage of the catastrophe they created.

This is a custom ConCen stiffy rip direct from the DVD. It's 86 minutes long but only 500MB so it's easy on the bandwidth.

===================================================

Dope, Inc.: Britain's Opium War Against the U.S. (1978)

SizeSeedsPeersCompleted
4.03 MiB0016
This torrent has no flags.



.

Subscribe to RSS - government corruption