You are here

What's with the Jews? (2018)

Primary tabs

SizeSeedsPeersCompleted
3.49 GiB20107
This torrent has no flags.



.
Their contribution to humanity is enormous, unique and exceedingly difficult to explain. From Moses to Maimonides, to Mahler, Marx, Freud, Einstein and some 197 Nobel Prize laureates, the stunning social, scientific and artistic accomplishments of the Jews raise an obvious question. How do they do it?

The story of huge overrepresentation at the top is the same wherever you look. How does 1/500th of the world’s population produce so many prominent musicians, architects, lawyers, doctors, journalists, comedians and directors? A third of the medical faculty at Harvard is Jewish, as are nearly 40 per cent of history’s world chess champions.

In 1954, New York State school tests revealed 28 students with IQs over 170. Astonishingly, 24 of them were Jewish.

“The numbers are bizarre. They make no sense at all,” says Montreal rabbi Reuben Poupko. For Harvard professor Steven Pinker “Jewish achievement is obvious; only the explanation is unclear.”

Calling Jewish success “colossal” and “extraordinary,” renowned British evolutionary biologist Richard Dawkins recently speculated that “something about the cultural tradition of Jews is way, way more sympathetic to science and learning and intellectual pursuits.”

Recent writings focus on wildly speculative hypotheses. Some suggest that Jews have been winnowed for success by pogrom and Holocaust. Others posit that Jews developed their minds in challenging professions after abandoning agriculture in the first Millenium. Still, others see a link between Ashkenazi genetic disorders and high intelligence.

Jewish genius remains a giant elephant in the room, today. “Jewish intellectual superiority is rarely if ever discussed in Jewish publications,” writes author Lewis Regenstein. “To some, these facts are awkward and even embarrassing, feeding stereotypes of 'crafty' Jews good at making money and flaunting their superiority to non-Jews.

”A good reason not to make the film? Perhaps. But we take the bolder approach of Prof. Pinker who noted recently: 'In every age, taboo questions raise our blood pressure and threaten moral panic. But we cannot be afraid to answer them.'"

General
Format : MPEG-4
File size : 3.49 GiB
Duration : 1 h 18 min
Overall bit rate mode : Constant
Overall bit rate : 6 388 kb/s

Video
Format : AVC
Format profile : High@L4
Format settings : CABAC / 4 Ref Frames
Format settings, CABAC : Yes
Format settings, ReFrames : 4 frames
Codec ID : avc1
Codec ID/Info : Advanced Video Coding
Bit rate mode : Constant
Bit rate : 6 000 kb/s
Width : 1 920 pixels
Height : 1 080 pixels
Display aspect ratio : 16:9
Frame rate mode : Variable
Frame rate : 29.970 (30000/1001) FPS
Minimum frame rate : 14.985 FPS
Maximum frame rate : 90 000.000 FPS
Bit depth : 8 bits
Scan type : Progressive
Bits/(Pixel*Frame) : 0.097
Stream size : 3.28 GiB (94%)

Audio
Format : AC-3
Format/Info : Audio Coding 3
Codec ID : ac-3
Bit rate mode : Constant
Bit rate : 384 kb/s
Channel(s) : 6 channels
Channel positions : Front: L C R, Side: L R, LFE
Sampling rate : 48.0 kHz
Frame rate : 31.250 FPS (1536 SPF)
Bit depth : 16 bits
Compression mode : Lossy
Stream size : 215 MiB (6%)

Comments

... is a new low, even for them. This is nauseating, arrogant, racist, elitist propaganda disguised as a documentary. Do not watch if you have high blood pressure!