You are here

JFK: Seven Days That Made a President (2013)

Primary tabs

SizeSeedsPeersCompleted
887.91 MiB103
This torrent has no flags.


http://www.imdb.com/title/tt3320700/?ref_=fn_al_tt_1




General
Complete name : F:\SEEDING FOLDER\JFK -Seven Days that Made a President (2013)\JFK.Seven.Days.that.Made.a.President.HDTV.XviD.avi
Format : AVI
Format/Info : Audio Video Interleave
File size : 888 MiB
Duration : 1h 27mn
Overall bit rate mode : Variable
Overall bit rate : 1 411 Kbps

Video
ID : 0
Format : MPEG-4 Visual
Format profile : Advanced Simple@L5
Format settings, BVOP : 2
Format settings, QPel : No
Format settings, GMC : No warppoints
Format settings, Matrix : Default (H.263)
Codec ID : XVID
Codec ID/Hint : XviD
Duration : 1h 27mn
Bit rate : 1 269 Kbps
Width : 640 pixels
Height : 360 pixels
Display aspect ratio : 16:9
Frame rate : 29.970 fps
Color space : YUV
Chroma subsampling : 4:2:0
Bit depth : 8 bits
Scan type : Progressive
Compression mode : Lossy
Bits/(Pixel*Frame) : 0.184
Stream size : 799 MiB (90%)
Writing library : XviD 64

Audio
ID : 1
Format : MPEG Audio
Format version : Version 1
Format profile : Layer 3
Mode : Joint stereo
Codec ID : 55
Codec ID/Hint : MP3
Duration : 1h 27mn
Bit rate mode : Variable
Bit rate : 128 Kbps
Channel(s) : 2 channels
Sampling rate : 48.0 KHz
Compression mode : Lossy
Stream size : 80.5 MiB (9%)
Alignment : Aligned on interleaves
Interleave, duration : 24 ms (0.72 video frame)
Interleave, preload duration : 178 ms
Title : JFK.Seven.Days.that.Made.a.President.HDTV.XviD-AFG_360p.audio