You are here

white collar crime

The Spider's Web: Britain's Second Empire (2017)

SizeSeedsPeersCompleted
571.58 MiB20153
This torrent has no flags.


File Duration Resolution Video Format Audio Format
TheSpidersWeb.BritainsSecondEmpire.2017.mp4 1h18m 1920x852 AVC AAC


.

Bad Money: Reckless Finance, Failed Politics, and the Global Crisis of American Capitalism (2008) [audiobook+ebook]

SizeSeedsPeersCompleted
191.53 MiB20108
This torrent has no flags.



.
Released in April 2008, a full 6 months before the staggering events of October, when the arch criminals of Wall Street held the U.S. government for ransom, threatening to crash the global economy if they weren't given trillions in bailout money, Bad Money lays out exactly who created the "crisis" for their own benefit, and why they needed to. The level of prescience in this book is stunning.

All the Plenary's Men 720p (2017)

SizeSeedsPeersCompleted
320.41 MiB10121
This torrent has no flags.


General Complete name : All the Plenarys Men.720p.2017.mp4 Format : MPEG-4 Format profile : Base Media Codec ID : isom (isom/iso2/avc1/mp41) File size : 320 MiB Duration : 56 min 41 s Overall bit rate : 790 kb/s Writing application : Lavf57.71.100 Video ID : 1 Format : AVC Format/Info : Advanced Video Codec Format profile : Main@L3.1 Format settings, CABAC : Yes Format settings, ReFrames : 3 frames Codec ID : avc1 Codec ID/Info : Advanced Video Coding Duration : 56 min 41 s Bit rate : 658 kb/s Width : 1 280 pixels Height : 720 pixels Display aspect ratio : 16:9 Frame rate mode : Variable Frame rate : 23.976 (24000/1001) FPS Minimum frame rate : 23.974 FPS Maximum frame rate : 23.981 FPS Color space : YUV Chroma subsampling : 4:2:0 Bit depth : 8 bits Scan type : Progressive Bits/(Pixel*Frame) : 0.030 Stream size : 267 MiB (83%) Color range : Limited Color primaries : BT.709 Transfer characteristics : BT.709 Matrix coefficients : BT.709 Audio ID : 2 Format : AAC Format/Info : Advanced Audio Codec Format profile : LC Codec ID : 40 Duration : 56 min 41 s Bit rate mode : Constant Bit rate : 126 kb/s Channel(s) : 2 channels Channel positions : Front: L R Sampling rate : 44.1 kHz Frame rate : 43.066 FPS (1024 spf) Compression mode : Lossy Stream size : 50.9 MiB (16%) Default : Yes Alternate group : 1


.
“The King can do no wrong.”

—William Blackstone, Commentaries on the Laws of England

“When the president does it, that means that it is not illegal.”

—Ex-President Richard Nixon, interview with David Frost

The question at bar is why the U.S. Department of Justice has failed to prosecute any too-big-to-fail banks or—more importantly—their bankers, even for admitted crimes.

Subscribe to RSS - white collar crime