You are here

great pyramid

Dr. Gene Scott - 15 Rare Teaching Albums

SizeSeedsPeersCompleted
1.27 GiB11079
This torrent has no flags.


Dr. Gene Scott Audio Extract #1 and #2

SizeSeedsPeersCompleted
73.78 MiB15046
This torrent has no flags.


The Pyramid Code (2009)

SizeSeedsPeersCompleted
3.13 GiB10124
This torrent has no flags.


SERIES NAME: Carmen Boulter's Pyramid Code (2009) GENERAL INFO: Format : AVI Format/Info : Audio Video Interleave File size : 641 MiB Duration : 44mn 32s Overall bit rate : 2 011 Kbps Director : Done with AutoMKV! 0.98.3 Writing application : VirtualDubMod 1.5.10.2 (build 2542/release) Writing library : VirtualDubMod build 2542/release VIDEO INFO: ID : 0 Format : MPEG-4 Visual Format profile : Advanced Simple@L5 Format settings, BVOP : 2 Format settings, QPel : No Format settings, GMC : No warppoints Format settings, Matrix : Default (H.263) Codec ID : XVID Codec ID/Hint : XviD Duration : 44mn 32s Bit rate : 1 871 Kbps Width : 720 pixels Height : 400 pixels Display aspect ratio : 16:9 Frame rate : 29.970 fps Color space : YUV Chroma subsampling : 4:2:0 Bit depth : 8 bits Scan type : Progressive Compression mode : Lossy Bits/(Pixel*Frame) : 0.217 Stream size : 596 MiB (93%) Writing library : XviD 1.2.1 (UTC 2008-12-04) AUDIO INFO: ID : 1 Format : AC-3 Format/Info : Audio Coding 3 Mode extension : CM (complete main) Format settings, Endianness : Big Codec ID : 2000 Duration : 44mn 32s Bit rate mode : Constant Bit rate : 128 Kbps Channel(s) : 2 channels Channel positions : Front: L R Sampling rate : 48.0 KHz Compression mode : Lossy Stream size : 40.8 MiB (6%) Alignment : Split accross interleaves Interleave, duration : 33 ms (1.00 video frame) Interleave, preload duration : 500 ms FILES LIST: The-Pyramid-Code_S01E01_The_Band_of_Peace.avi (640 MB) The-Pyramid-Code_S01E02_High_Level_Technology.avi (641 MB) The-Pyramid-Code_S01E03_Sacred_Cosmology.avi (641 MB) The-Pyramid-Code_S01E04_The_Empowered_Human.avi (640 MB) The-Pyramid-Code_S01E05_A_New_Chronology.avi (640 MB) IMDB LINK: https://www.imdb.com/title/tt1806688 HASH TAGS: documentary series, great pyramid, egyptology, ancient egypt, ancient technology, golden age, carmen boulter, john anthony west, robert bauval, robert schoch,

Subscribe to RSS - great pyramid