You are here

bay of pigs

JFK: A New World Order (2013)

SizeSeedsPeersCompleted
1.82 GiB1080
This torrent has no flags.


SERIES NAME: JFK, A New World Order (2013) GENERAL INFO: Format : AVI Format/Info : Audio Video Interleave File size : 233 MiB Duration : 26mn 59s Overall bit rate mode : Variable Overall bit rate : 1 208 Kbps Writing application : VirtualDubMod 1.5.10.2 (build 2540/release) Writing library : VirtualDubMod build 2540/release VIDEO INFO: ID : 0 Format : MPEG-4 Visual Format profile : Advanced Simple@L5 Format settings, BVOP : 2 Format settings, QPel : No Format settings, GMC : No warppoints Format settings, Matrix : Default (H.263) Codec ID : XVID Codec ID/Hint : XviD Duration : 26mn 59s Bit rate : 1 085 Kbps Width : 640 pixels Height : 352 pixels Display aspect ratio : 16:9 Frame rate : 23.976 fps Color space : YUV Chroma subsampling : 4:2:0 Bit depth : 8 bits Scan type : Progressive Compression mode : Lossy Bits/(Pixel*Frame) : 0.201 Stream size : 210 MiB (90%) Writing library : XviD 64 AUDIO INFO: ID : 1 Format : MPEG Audio Format version : Version 1 Format profile : Layer 3 Mode : Joint stereo Mode extension : MS Stereo Codec ID : 55 Codec ID/Hint : MP3 Duration : 26mn 59s Bit rate mode : Variable Bit rate : 110 Kbps Nominal bit rate : 128 Kbps Channel(s) : 2 channels Sampling rate : 48.0 KHz Compression mode : Lossy Stream size : 21.2 MiB (9%) Alignment : Aligned on interleaves Interleave, duration : 24 ms (0.58 video frame) Interleave, preload duration : 458 ms Writing library : LAME3.97 Encoding settings : -m j -V 4 -q 3 -lowpass 17 --abr 128 FILES LIST: JFK_A-New-World-Order_S01E01_The-Early-Years.avi (233 MB) JFK_A-New-World-Order_S01E02_For-All-to-See.avi (232 MB) JFK_A-New-World-Order_S01E03_New-Frontiers.avi (232 MB) JFK_A-New-World-Order_S01E04_Doomsday-Averted.avi (233 MB) JFK_A-New-World-Order_S01E05_A-Wall-of-Words.avi (231 MB) JFK_A-New-World-Order_S01E06_War-Within-and-Without_Part-1.avi (232 MB) JFK_A-New-World-Order_S01E07_War-Within-and-Without_Part-2.avi (232 MB) JFK_A-New-World-Order_S01E08_Camelot-and-Beyond.avi (232 MB) IMDB LINK: https://www.imdb.com/title/tt2971770 HASH TAGS: documentary series, JFK, John F Kennedy, assassination, new world order, bay of pigs, cuban missile crisis, cold war, camelot, united states presidency,


.

Subscribe to RSS - bay of pigs